<?xml version="1.0" standalone="no"?>
<!DOCTYPE svg PUBLIC "-//W3C//DTD SVG 1.1//EN" "http://www.w3.org/Graphics/SVG/1.1/DTD/svg11.dtd" >
<svg xmlns="http://www.w3.org/2000/svg" xmlns:xlink="http://www.w3.org/1999/xlink" version="1.1">
<metadata>
Created by FontForge 20201107 at Thu Jan  9 12:54:45 2020
 By Jimmy Wärting
Copyright \(c\) 2020 by Fontsmith Ltd. All rights reserved. This font may not be altered in any way without prior permission of Fontsmith Ltd.
</metadata>
<defs>
<font id="JaguarModern-Bold" horiz-adv-x="0" >
  <font-face 
    font-family="Jaguar Modern"
    font-weight="700"
    font-stretch="normal"
    units-per-em="1000"
    panose-1="2 6 5 3 3 2 2 5 2 3"
    ascent="741"
    descent="-259"
    cap-height="726"
    bbox="-603 -336 1463 1196"
    underline-thickness="124"
    underline-position="-100"
    stemh="141"
    stemv="180"
    unicode-range="U+000D-F8FF"
  />
<missing-glyph horiz-adv-x="570" 
d="M96 0v706h378v-706h-378zM286 398l128 258h-258zM134 96l129 257l-129 257v-514zM436 96v514l-128 -257zM156 51h258l-128 256z" />
    <glyph glyph-name=".notdef" horiz-adv-x="570" 
d="M96 0v706h378v-706h-378zM286 398l128 258h-258zM134 96l129 257l-129 257v-514zM436 96v514l-128 -257zM156 51h258l-128 256z" />
    <glyph glyph-name=".null" 
 />
    <glyph glyph-name="CR" unicode="&#xd;" horiz-adv-x="450" 
 />
    <glyph glyph-name="space" unicode=" " horiz-adv-x="450" 
 />
    <glyph glyph-name="A" unicode="A" horiz-adv-x="901" 
d="M695 0l-65 133h-367l-63 -133h-188l366 726h143l368 -726h-194zM330 275h232l-118 242z" />
    <glyph glyph-name="A" unicode="a" horiz-adv-x="901" 
d="M695 0l-65 133h-367l-63 -133h-188l366 726h143l368 -726h-194zM330 275h232l-118 242z" />
    <glyph glyph-name="Aacute" unicode="&#xc1;" horiz-adv-x="901" 
d="M669 990l-144 -185h-154l102 185h196zM695 0l-65 133h-367l-63 -133h-188l366 726h143l368 -726h-194zM330 275h232l-118 242z" />
    <glyph glyph-name="Aacute" unicode="&#xe1;" horiz-adv-x="901" 
d="M669 990l-144 -185h-154l102 185h196zM695 0l-65 133h-367l-63 -133h-188l366 726h143l368 -726h-194zM330 275h232l-118 242z" />
    <glyph glyph-name="Abreve" unicode="&#x102;" horiz-adv-x="901" 
d="M435 803c-115 0 -195 61 -195 181h134c9 -65 36 -82 73 -82h6c40 0 67 27 73 82h133c-1 -121 -77 -181 -193 -181h-31zM695 0l-65 133h-367l-63 -133h-188l366 726h143l368 -726h-194zM330 275h232l-118 242z" />
    <glyph glyph-name="Abreve" unicode="&#x103;" horiz-adv-x="901" 
d="M435 803c-115 0 -195 61 -195 181h134c9 -65 36 -82 73 -82h6c40 0 67 27 73 82h133c-1 -121 -77 -181 -193 -181h-31zM695 0l-65 133h-367l-63 -133h-188l366 726h143l368 -726h-194zM330 275h232l-118 242z" />
    <glyph glyph-name="uni01CD" unicode="&#x1cd;" horiz-adv-x="901" 
d="M523 789h-148l-139 188h164l46 -84h7l45 84h164zM695 0l-65 133h-367l-63 -133h-188l366 726h143l368 -726h-194zM330 275h232l-118 242z" />
    <glyph glyph-name="uni01CD" unicode="&#x1ce;" horiz-adv-x="901" 
d="M523 789h-148l-139 188h164l46 -84h7l45 84h164zM695 0l-65 133h-367l-63 -133h-188l366 726h143l368 -726h-194zM330 275h232l-118 242z" />
    <glyph glyph-name="Acircumflex" unicode="&#xc2;" horiz-adv-x="901" 
d="M446 875l-46 -84h-164l139 188h148l139 -188h-164l-45 84h-7zM695 0l-65 133h-367l-63 -133h-188l366 726h143l368 -726h-194zM330 275h232l-118 242z" />
    <glyph glyph-name="Acircumflex" unicode="&#xe2;" horiz-adv-x="901" 
d="M446 875l-46 -84h-164l139 188h148l139 -188h-164l-45 84h-7zM695 0l-65 133h-367l-63 -133h-188l366 726h143l368 -726h-194zM330 275h232l-118 242z" />
    <glyph glyph-name="Adieresis" unicode="&#xc4;" horiz-adv-x="901" 
d="M336 808c-54 0 -82 27 -82 79s28 79 81 79c55 0 84 -27 84 -79s-29 -79 -83 -79zM561 808c-54 0 -82 27 -82 79s28 79 81 79c54 0 83 -27 83 -79s-28 -79 -82 -79zM695 0l-65 133h-367l-63 -133h-188l366 726h143l368 -726h-194zM330 275h232l-118 242z" />
    <glyph glyph-name="Adieresis" unicode="&#xe4;" horiz-adv-x="901" 
d="M336 808c-54 0 -82 27 -82 79s28 79 81 79c55 0 84 -27 84 -79s-29 -79 -83 -79zM561 808c-54 0 -82 27 -82 79s28 79 81 79c54 0 83 -27 83 -79s-28 -79 -82 -79zM695 0l-65 133h-367l-63 -133h-188l366 726h143l368 -726h-194zM330 275h232l-118 242z" />
    <glyph glyph-name="Agrave" unicode="&#xc0;" horiz-adv-x="901" 
d="M542 805h-155l-143 185h196zM695 0l-65 133h-367l-63 -133h-188l366 726h143l368 -726h-194zM330 275h232l-118 242z" />
    <glyph glyph-name="Agrave" unicode="&#xe0;" horiz-adv-x="901" 
d="M542 805h-155l-143 185h196zM695 0l-65 133h-367l-63 -133h-188l366 726h143l368 -726h-194zM330 275h232l-118 242z" />
    <glyph glyph-name="Amacron" unicode="&#x100;" horiz-adv-x="901" 
d="M643 943v-112h-386v112h386zM695 0l-65 133h-367l-63 -133h-188l366 726h143l368 -726h-194zM330 275h232l-118 242z" />
    <glyph glyph-name="Amacron" unicode="&#x101;" horiz-adv-x="901" 
d="M643 943v-112h-386v112h386zM695 0l-65 133h-367l-63 -133h-188l366 726h143l368 -726h-194zM330 275h232l-118 242z" />
    <glyph glyph-name="Aogonek" unicode="&#x104;" horiz-adv-x="901" 
d="M738 -164c0 -33 11 -43 52 -43h46v-102h-115c-82 0 -125 39 -125 117c0 56 20 124 100 192h-1l-65 133h-367l-63 -133h-188l366 726h143l368 -726c-140 -68 -151 -138 -151 -164zM330 275h232l-118 242z" />
    <glyph glyph-name="Aogonek" unicode="&#x105;" horiz-adv-x="901" 
d="M738 -164c0 -33 11 -43 52 -43h46v-102h-115c-82 0 -125 39 -125 117c0 56 20 124 100 192h-1l-65 133h-367l-63 -133h-188l366 726h143l368 -726c-140 -68 -151 -138 -151 -164zM330 275h232l-118 242z" />
    <glyph glyph-name="Aring" unicode="&#xc5;" horiz-adv-x="901" 
d="M418 766c-58 0 -95 37 -95 108s37 108 95 108h63c58 0 96 -37 96 -108s-38 -108 -96 -108h-63zM439 915c-21 0 -34 -15 -34 -41s14 -41 34 -41h21c21 0 35 15 35 41s-14 41 -35 41h-21zM695 0l-65 133h-367l-63 -133h-188l366 726h143l368 -726h-194zM330 275h232
l-118 242z" />
    <glyph glyph-name="Aring" unicode="&#xe5;" horiz-adv-x="901" 
d="M418 766c-58 0 -95 37 -95 108s37 108 95 108h63c58 0 96 -37 96 -108s-38 -108 -96 -108h-63zM439 915c-21 0 -34 -15 -34 -41s14 -41 34 -41h21c21 0 35 15 35 41s-14 41 -35 41h-21zM695 0l-65 133h-367l-63 -133h-188l366 726h143l368 -726h-194zM330 275h232
l-118 242z" />
    <glyph glyph-name="Aringacute" unicode="&#x1fa;" horiz-adv-x="901" 
d="M669 1196l-144 -185h-154l102 185h196zM418 766c-58 0 -95 37 -95 108s37 108 95 108h63c58 0 96 -37 96 -108s-38 -108 -96 -108h-63zM439 915c-21 0 -34 -15 -34 -41s14 -41 34 -41h21c21 0 35 15 35 41s-14 41 -35 41h-21zM695 0l-65 133h-367l-63 -133h-188l366 726
h143l368 -726h-194zM330 275h232l-118 242z" />
    <glyph glyph-name="Aringacute" unicode="&#x1fb;" horiz-adv-x="901" 
d="M669 1196l-144 -185h-154l102 185h196zM418 766c-58 0 -95 37 -95 108s37 108 95 108h63c58 0 96 -37 96 -108s-38 -108 -96 -108h-63zM439 915c-21 0 -34 -15 -34 -41s14 -41 34 -41h21c21 0 35 15 35 41s-14 41 -35 41h-21zM695 0l-65 133h-367l-63 -133h-188l366 726
h143l368 -726h-194zM330 275h232l-118 242z" />
    <glyph glyph-name="Atilde" unicode="&#xc3;" horiz-adv-x="901" 
d="M379 854c-30 0 -66 -23 -92 -55l-58 66c37 62 95 105 155 105c21 0 44 -5 72 -22l21 -13c21 -13 39 -23 59 -23c26 0 54 24 74 59l62 -57c-26 -63 -85 -114 -137 -114c-38 0 -59 12 -85 27l-21 12c-19 11 -39 15 -50 15zM695 0l-65 133h-367l-63 -133h-188l366 726h143
l368 -726h-194zM330 275h232l-118 242z" />
    <glyph glyph-name="Atilde" unicode="&#xe3;" horiz-adv-x="901" 
d="M379 854c-30 0 -66 -23 -92 -55l-58 66c37 62 95 105 155 105c21 0 44 -5 72 -22l21 -13c21 -13 39 -23 59 -23c26 0 54 24 74 59l62 -57c-26 -63 -85 -114 -137 -114c-38 0 -59 12 -85 27l-21 12c-19 11 -39 15 -50 15zM695 0l-65 133h-367l-63 -133h-188l366 726h143
l368 -726h-194zM330 275h232l-118 242z" />
    <glyph glyph-name="AE" unicode="&#xc6;" horiz-adv-x="1245" 
d="M699 141h476v-141h-656v133h-257l-75 -133h-192l454 726h725v-141h-475v-154h386v-136h-386v-154zM519 275v312l-184 -312h184z" />
    <glyph glyph-name="AE" unicode="&#xe6;" horiz-adv-x="1245" 
d="M699 141h476v-141h-656v133h-257l-75 -133h-192l454 726h725v-141h-475v-154h386v-136h-386v-154zM519 275v312l-184 -312h184z" />
    <glyph glyph-name="AEacute" unicode="&#x1fc;" horiz-adv-x="1245" 
d="M875 990l-144 -185h-154l102 185h196zM699 141h476v-141h-656v133h-257l-75 -133h-192l454 726h725v-141h-475v-154h386v-136h-386v-154zM519 275v312l-184 -312h184z" />
    <glyph glyph-name="AEacute" unicode="&#x1fd;" horiz-adv-x="1245" 
d="M875 990l-144 -185h-154l102 185h196zM699 141h476v-141h-656v133h-257l-75 -133h-192l454 726h725v-141h-475v-154h386v-136h-386v-154zM519 275v312l-184 -312h184z" />
    <glyph glyph-name="B" unicode="B" horiz-adv-x="890" 
d="M716 386c74 -28 114 -89 114 -176c0 -135 -103 -210 -288 -210h-452v726h496c139 0 217 -65 217 -182c0 -65 -31 -120 -87 -158zM628 511c0 48 -35 74 -97 74h-261v-149h261c62 0 97 27 97 75zM546 141c67 0 105 30 105 83s-38 82 -105 82h-276v-165h276z" />
    <glyph glyph-name="B" unicode="b" horiz-adv-x="890" 
d="M716 386c74 -28 114 -89 114 -176c0 -135 -103 -210 -288 -210h-452v726h496c139 0 217 -65 217 -182c0 -65 -31 -120 -87 -158zM628 511c0 48 -35 74 -97 74h-261v-149h261c62 0 97 27 97 75zM546 141c67 0 105 30 105 83s-38 82 -105 82h-276v-165h276z" />
    <glyph glyph-name="C" unicode="C" horiz-adv-x="881" 
d="M526 -12c-334 0 -470 130 -470 375s136 375 470 375c82 0 150 -5 283 -26v-144c-123 20 -199 26 -276 26c-220 0 -291 -78 -291 -231c0 -150 71 -231 291 -231c78 0 153 7 276 31v-144c-133 -25 -200 -31 -283 -31z" />
    <glyph glyph-name="C" unicode="c" horiz-adv-x="881" 
d="M526 -12c-334 0 -470 130 -470 375s136 375 470 375c82 0 150 -5 283 -26v-144c-123 20 -199 26 -276 26c-220 0 -291 -78 -291 -231c0 -150 71 -231 291 -231c78 0 153 7 276 31v-144c-133 -25 -200 -31 -283 -31z" />
    <glyph glyph-name="Cacute" unicode="&#x106;" horiz-adv-x="881" 
d="M432 805l102 185h196l-144 -185h-154zM526 -12c-334 0 -470 130 -470 375s136 375 470 375c82 0 150 -5 283 -26v-144c-123 20 -199 26 -276 26c-220 0 -291 -78 -291 -231c0 -150 71 -231 291 -231c78 0 153 7 276 31v-144c-133 -25 -200 -31 -283 -31z" />
    <glyph glyph-name="Cacute" unicode="&#x107;" horiz-adv-x="881" 
d="M432 805l102 185h196l-144 -185h-154zM526 -12c-334 0 -470 130 -470 375s136 375 470 375c82 0 150 -5 283 -26v-144c-123 20 -199 26 -276 26c-220 0 -291 -78 -291 -231c0 -150 71 -231 291 -231c78 0 153 7 276 31v-144c-133 -25 -200 -31 -283 -31z" />
    <glyph glyph-name="Ccaron" unicode="&#x10c;" horiz-adv-x="881" 
d="M436 789l-139 188h164l46 -84h7l45 84h164l-139 -188h-148zM526 -12c-334 0 -470 130 -470 375s136 375 470 375c82 0 150 -5 283 -26v-144c-123 20 -199 26 -276 26c-220 0 -291 -78 -291 -231c0 -150 71 -231 291 -231c78 0 153 7 276 31v-144
c-133 -25 -200 -31 -283 -31z" />
    <glyph glyph-name="Ccaron" unicode="&#x10d;" horiz-adv-x="881" 
d="M436 789l-139 188h164l46 -84h7l45 84h164l-139 -188h-148zM526 -12c-334 0 -470 130 -470 375s136 375 470 375c82 0 150 -5 283 -26v-144c-123 20 -199 26 -276 26c-220 0 -291 -78 -291 -231c0 -150 71 -231 291 -231c78 0 153 7 276 31v-144
c-133 -25 -200 -31 -283 -31z" />
    <glyph glyph-name="Ccedilla" unicode="&#xc7;" horiz-adv-x="881" 
d="M533 594c-220 0 -291 -78 -291 -231c0 -150 71 -231 291 -231c78 0 153 7 276 31v-144c-133 -25 -200 -31 -283 -31h-3l-3 -33h35c74 0 121 -47 121 -123c0 -99 -46 -141 -131 -141h-195v102h168c12 0 25 4 25 30c0 27 -3 31 -27 31h-120l24 139
c-257 26 -364 153 -364 370c0 245 136 375 470 375c82 0 150 -5 283 -26v-144c-123 20 -199 26 -276 26z" />
    <glyph glyph-name="Ccedilla" unicode="&#xe7;" horiz-adv-x="881" 
d="M533 594c-220 0 -291 -78 -291 -231c0 -150 71 -231 291 -231c78 0 153 7 276 31v-144c-133 -25 -200 -31 -283 -31h-3l-3 -33h35c74 0 121 -47 121 -123c0 -99 -46 -141 -131 -141h-195v102h168c12 0 25 4 25 30c0 27 -3 31 -27 31h-120l24 139
c-257 26 -364 153 -364 370c0 245 136 375 470 375c82 0 150 -5 283 -26v-144c-123 20 -199 26 -276 26z" />
    <glyph glyph-name="Ccircumflex" unicode="&#x108;" horiz-adv-x="881" 
d="M297 791l139 188h148l139 -188h-164l-45 84h-7l-46 -84h-164zM526 -12c-334 0 -470 130 -470 375s136 375 470 375c82 0 150 -5 283 -26v-144c-123 20 -199 26 -276 26c-220 0 -291 -78 -291 -231c0 -150 71 -231 291 -231c78 0 153 7 276 31v-144
c-133 -25 -200 -31 -283 -31z" />
    <glyph glyph-name="Ccircumflex" unicode="&#x109;" horiz-adv-x="881" 
d="M297 791l139 188h148l139 -188h-164l-45 84h-7l-46 -84h-164zM526 -12c-334 0 -470 130 -470 375s136 375 470 375c82 0 150 -5 283 -26v-144c-123 20 -199 26 -276 26c-220 0 -291 -78 -291 -231c0 -150 71 -231 291 -231c78 0 153 7 276 31v-144
c-133 -25 -200 -31 -283 -31z" />
    <glyph glyph-name="Cdotaccent" unicode="&#x10a;" horiz-adv-x="881" 
d="M511 802c-63 0 -96 29 -96 85s32 85 95 85c64 0 97 -29 97 -85s-33 -85 -96 -85zM526 -12c-334 0 -470 130 -470 375s136 375 470 375c82 0 150 -5 283 -26v-144c-123 20 -199 26 -276 26c-220 0 -291 -78 -291 -231c0 -150 71 -231 291 -231c78 0 153 7 276 31v-144
c-133 -25 -200 -31 -283 -31z" />
    <glyph glyph-name="Cdotaccent" unicode="&#x10b;" horiz-adv-x="881" 
d="M511 802c-63 0 -96 29 -96 85s32 85 95 85c64 0 97 -29 97 -85s-33 -85 -96 -85zM526 -12c-334 0 -470 130 -470 375s136 375 470 375c82 0 150 -5 283 -26v-144c-123 20 -199 26 -276 26c-220 0 -291 -78 -291 -231c0 -150 71 -231 291 -231c78 0 153 7 276 31v-144
c-133 -25 -200 -31 -283 -31z" />
    <glyph glyph-name="D" unicode="D" horiz-adv-x="933" 
d="M90 0v726h411c202 0 376 -66 376 -363s-174 -363 -376 -363h-411zM270 144h222c116 0 199 20 199 219c0 203 -88 219 -199 219h-222v-438z" />
    <glyph glyph-name="D" unicode="d" horiz-adv-x="933" 
d="M90 0v726h411c202 0 376 -66 376 -363s-174 -363 -376 -363h-411zM270 144h222c116 0 199 20 199 219c0 203 -88 219 -199 219h-222v-438z" />
    <glyph glyph-name="Eth" unicode="&#xd0;" horiz-adv-x="933" 
d="M501 726c202 0 376 -66 376 -363s-174 -363 -376 -363h-411v302h-98v122h98v302h411zM492 144c116 0 199 20 199 219c0 203 -88 219 -199 219h-222v-158h219v-122h-219v-158h222z" />
    <glyph glyph-name="Eth" unicode="&#xf0;" horiz-adv-x="933" 
d="M501 726c202 0 376 -66 376 -363s-174 -363 -376 -363h-411v302h-98v122h98v302h411zM492 144c116 0 199 20 199 219c0 203 -88 219 -199 219h-222v-158h219v-122h-219v-158h222z" />
    <glyph glyph-name="Dcaron" unicode="&#x10e;" horiz-adv-x="933" 
d="M375 789l-139 188h164l46 -84h7l45 84h164l-139 -188h-148zM90 0v726h411c202 0 376 -66 376 -363s-174 -363 -376 -363h-411zM270 144h222c116 0 199 20 199 219c0 203 -88 219 -199 219h-222v-438z" />
    <glyph glyph-name="Dcaron" unicode="&#x10f;" horiz-adv-x="933" 
d="M375 789l-139 188h164l46 -84h7l45 84h164l-139 -188h-148zM90 0v726h411c202 0 376 -66 376 -363s-174 -363 -376 -363h-411zM270 144h222c116 0 199 20 199 219c0 203 -88 219 -199 219h-222v-438z" />
    <glyph glyph-name="Dcroat" unicode="&#x110;" horiz-adv-x="933" 
d="M501 726c202 0 376 -66 376 -363s-174 -363 -376 -363h-411v302h-98v122h98v302h411zM492 144c116 0 199 20 199 219c0 203 -88 219 -199 219h-222v-158h219v-122h-219v-158h222z" />
    <glyph glyph-name="Dcroat" unicode="&#x111;" horiz-adv-x="933" 
d="M501 726c202 0 376 -66 376 -363s-174 -363 -376 -363h-411v302h-98v122h98v302h411zM492 144c116 0 199 20 199 219c0 203 -88 219 -199 219h-222v-158h219v-122h-219v-158h222z" />
    <glyph glyph-name="E" unicode="E" horiz-adv-x="816" 
d="M270 141h476v-141h-656v726h655v-141h-475v-154h386v-136h-386v-154z" />
    <glyph glyph-name="E" unicode="e" horiz-adv-x="816" 
d="M270 141h476v-141h-656v726h655v-141h-475v-154h386v-136h-386v-154z" />
    <glyph glyph-name="Eacute" unicode="&#xc9;" horiz-adv-x="816" 
d="M640 990l-144 -185h-154l102 185h196zM270 141h476v-141h-656v726h655v-141h-475v-154h386v-136h-386v-154z" />
    <glyph glyph-name="Eacute" unicode="&#xe9;" horiz-adv-x="816" 
d="M640 990l-144 -185h-154l102 185h196zM270 141h476v-141h-656v726h655v-141h-475v-154h386v-136h-386v-154z" />
    <glyph glyph-name="Ebreve" unicode="&#x114;" horiz-adv-x="816" 
d="M406 803c-115 0 -195 61 -195 181h134c9 -65 36 -82 73 -82h6c40 0 67 27 73 82h133c-1 -121 -77 -181 -193 -181h-31zM270 141h476v-141h-656v726h655v-141h-475v-154h386v-136h-386v-154z" />
    <glyph glyph-name="Ebreve" unicode="&#x115;" horiz-adv-x="816" 
d="M406 803c-115 0 -195 61 -195 181h134c9 -65 36 -82 73 -82h6c40 0 67 27 73 82h133c-1 -121 -77 -181 -193 -181h-31zM270 141h476v-141h-656v726h655v-141h-475v-154h386v-136h-386v-154z" />
    <glyph glyph-name="Ecaron" unicode="&#x11a;" horiz-adv-x="816" 
d="M494 789h-148l-139 188h164l46 -84h7l45 84h164zM270 141h476v-141h-656v726h655v-141h-475v-154h386v-136h-386v-154z" />
    <glyph glyph-name="Ecaron" unicode="&#x11b;" horiz-adv-x="816" 
d="M494 789h-148l-139 188h164l46 -84h7l45 84h164zM270 141h476v-141h-656v726h655v-141h-475v-154h386v-136h-386v-154z" />
    <glyph glyph-name="Ecircumflex" unicode="&#xca;" horiz-adv-x="816" 
d="M417 875l-46 -84h-164l139 188h148l139 -188h-164l-45 84h-7zM270 141h476v-141h-656v726h655v-141h-475v-154h386v-136h-386v-154z" />
    <glyph glyph-name="Ecircumflex" unicode="&#xea;" horiz-adv-x="816" 
d="M417 875l-46 -84h-164l139 188h148l139 -188h-164l-45 84h-7zM270 141h476v-141h-656v726h655v-141h-475v-154h386v-136h-386v-154z" />
    <glyph glyph-name="Edieresis" unicode="&#xcb;" horiz-adv-x="816" 
d="M307 808c-54 0 -82 27 -82 79s28 79 81 79c55 0 84 -27 84 -79s-29 -79 -83 -79zM532 808c-54 0 -82 27 -82 79s28 79 81 79c54 0 83 -27 83 -79s-28 -79 -82 -79zM270 141h476v-141h-656v726h655v-141h-475v-154h386v-136h-386v-154z" />
    <glyph glyph-name="Edieresis" unicode="&#xeb;" horiz-adv-x="816" 
d="M307 808c-54 0 -82 27 -82 79s28 79 81 79c55 0 84 -27 84 -79s-29 -79 -83 -79zM532 808c-54 0 -82 27 -82 79s28 79 81 79c54 0 83 -27 83 -79s-28 -79 -82 -79zM270 141h476v-141h-656v726h655v-141h-475v-154h386v-136h-386v-154z" />
    <glyph glyph-name="Edotaccent" unicode="&#x116;" horiz-adv-x="816" 
d="M421 802c-63 0 -96 29 -96 85s32 85 95 85c64 0 97 -29 97 -85s-33 -85 -96 -85zM270 141h476v-141h-656v726h655v-141h-475v-154h386v-136h-386v-154z" />
    <glyph glyph-name="Edotaccent" unicode="&#x117;" horiz-adv-x="816" 
d="M421 802c-63 0 -96 29 -96 85s32 85 95 85c64 0 97 -29 97 -85s-33 -85 -96 -85zM270 141h476v-141h-656v726h655v-141h-475v-154h386v-136h-386v-154z" />
    <glyph glyph-name="Egrave" unicode="&#xc8;" horiz-adv-x="816" 
d="M513 805h-155l-143 185h196zM270 141h476v-141h-656v726h655v-141h-475v-154h386v-136h-386v-154z" />
    <glyph glyph-name="Egrave" unicode="&#xe8;" horiz-adv-x="816" 
d="M513 805h-155l-143 185h196zM270 141h476v-141h-656v726h655v-141h-475v-154h386v-136h-386v-154z" />
    <glyph glyph-name="Emacron" unicode="&#x112;" horiz-adv-x="816" 
d="M614 943v-112h-386v112h386zM270 141h476v-141h-656v726h655v-141h-475v-154h386v-136h-386v-154z" />
    <glyph glyph-name="Emacron" unicode="&#x113;" horiz-adv-x="816" 
d="M614 943v-112h-386v112h386zM270 141h476v-141h-656v726h655v-141h-475v-154h386v-136h-386v-154z" />
    <glyph glyph-name="Eogonek" unicode="&#x118;" horiz-adv-x="816" 
d="M746 0c-140 -68 -151 -138 -151 -164c0 -33 11 -43 52 -43h46v-102h-115c-82 0 -125 39 -125 117c0 56 20 124 100 192h-463v726h655v-141h-475v-154h386v-136h-386v-154h476v-141z" />
    <glyph glyph-name="Eogonek" unicode="&#x119;" horiz-adv-x="816" 
d="M746 0c-140 -68 -151 -138 -151 -164c0 -33 11 -43 52 -43h46v-102h-115c-82 0 -125 39 -125 117c0 56 20 124 100 192h-463v726h655v-141h-475v-154h386v-136h-386v-154h476v-141z" />
    <glyph glyph-name="F" unicode="F" horiz-adv-x="783" 
d="M743 585h-473v-154h386v-136h-386v-295h-180v726h653v-141z" />
    <glyph glyph-name="F" unicode="f" horiz-adv-x="783" 
d="M743 585h-473v-154h386v-136h-386v-295h-180v726h653v-141z" />
    <glyph glyph-name="G" unicode="G" horiz-adv-x="933" 
d="M673 374h180v-347c-58 -21 -190 -39 -322 -39c-354 0 -475 124 -475 369c0 239 136 381 470 381c82 0 160 -4 293 -23v-144c-91 13 -185 23 -269 23c-191 0 -307 -53 -307 -236c0 -175 107 -231 304 -231c42 0 85 4 126 10v237z" />
    <glyph glyph-name="G" unicode="g" horiz-adv-x="933" 
d="M673 374h180v-347c-58 -21 -190 -39 -322 -39c-354 0 -475 124 -475 369c0 239 136 381 470 381c82 0 160 -4 293 -23v-144c-91 13 -185 23 -269 23c-191 0 -307 -53 -307 -236c0 -175 107 -231 304 -231c42 0 85 4 126 10v237z" />
    <glyph glyph-name="Gbreve" unicode="&#x11e;" horiz-adv-x="933" 
d="M499 803c-115 0 -195 61 -195 181h134c9 -65 36 -82 73 -82h6c40 0 67 27 73 82h133c-1 -121 -77 -181 -193 -181h-31zM673 374h180v-347c-58 -21 -190 -39 -322 -39c-354 0 -475 124 -475 369c0 239 136 381 470 381c82 0 160 -4 293 -23v-144c-91 13 -185 23 -269 23
c-191 0 -307 -53 -307 -236c0 -175 107 -231 304 -231c42 0 85 4 126 10v237z" />
    <glyph glyph-name="Gbreve" unicode="&#x11f;" horiz-adv-x="933" 
d="M499 803c-115 0 -195 61 -195 181h134c9 -65 36 -82 73 -82h6c40 0 67 27 73 82h133c-1 -121 -77 -181 -193 -181h-31zM673 374h180v-347c-58 -21 -190 -39 -322 -39c-354 0 -475 124 -475 369c0 239 136 381 470 381c82 0 160 -4 293 -23v-144c-91 13 -185 23 -269 23
c-191 0 -307 -53 -307 -236c0 -175 107 -231 304 -231c42 0 85 4 126 10v237z" />
    <glyph glyph-name="Gcircumflex" unicode="&#x11c;" horiz-adv-x="933" 
d="M510 875l-46 -84h-164l139 188h148l139 -188h-164l-45 84h-7zM673 374h180v-347c-58 -21 -190 -39 -322 -39c-354 0 -475 124 -475 369c0 239 136 381 470 381c82 0 160 -4 293 -23v-144c-91 13 -185 23 -269 23c-191 0 -307 -53 -307 -236c0 -175 107 -231 304 -231
c42 0 85 4 126 10v237z" />
    <glyph glyph-name="Gcircumflex" unicode="&#x11d;" horiz-adv-x="933" 
d="M510 875l-46 -84h-164l139 188h148l139 -188h-164l-45 84h-7zM673 374h180v-347c-58 -21 -190 -39 -322 -39c-354 0 -475 124 -475 369c0 239 136 381 470 381c82 0 160 -4 293 -23v-144c-91 13 -185 23 -269 23c-191 0 -307 -53 -307 -236c0 -175 107 -231 304 -231
c42 0 85 4 126 10v237z" />
    <glyph glyph-name="uni0122" unicode="&#x122;" horiz-adv-x="933" 
d="M673 374h180v-347c-58 -21 -190 -39 -322 -39c-354 0 -475 124 -475 369c0 239 136 381 470 381c82 0 160 -4 293 -23v-144c-91 13 -185 23 -269 23c-191 0 -307 -53 -307 -236c0 -175 107 -231 304 -231c42 0 85 4 126 10v237zM401 -336l31 274h162l-66 -274h-127z" />
    <glyph glyph-name="uni0122" unicode="&#x123;" horiz-adv-x="933" 
d="M673 374h180v-347c-58 -21 -190 -39 -322 -39c-354 0 -475 124 -475 369c0 239 136 381 470 381c82 0 160 -4 293 -23v-144c-91 13 -185 23 -269 23c-191 0 -307 -53 -307 -236c0 -175 107 -231 304 -231c42 0 85 4 126 10v237zM401 -336l31 274h162l-66 -274h-127z" />
    <glyph glyph-name="Gdotaccent" unicode="&#x120;" horiz-adv-x="933" 
d="M514 802c-63 0 -96 29 -96 85s32 85 95 85c64 0 97 -29 97 -85s-33 -85 -96 -85zM673 374h180v-347c-58 -21 -190 -39 -322 -39c-354 0 -475 124 -475 369c0 239 136 381 470 381c82 0 160 -4 293 -23v-144c-91 13 -185 23 -269 23c-191 0 -307 -53 -307 -236
c0 -175 107 -231 304 -231c42 0 85 4 126 10v237z" />
    <glyph glyph-name="Gdotaccent" unicode="&#x121;" horiz-adv-x="933" 
d="M514 802c-63 0 -96 29 -96 85s32 85 95 85c64 0 97 -29 97 -85s-33 -85 -96 -85zM673 374h180v-347c-58 -21 -190 -39 -322 -39c-354 0 -475 124 -475 369c0 239 136 381 470 381c82 0 160 -4 293 -23v-144c-91 13 -185 23 -269 23c-191 0 -307 -53 -307 -236
c0 -175 107 -231 304 -231c42 0 85 4 126 10v237z" />
    <glyph glyph-name="H" unicode="H" horiz-adv-x="959" 
d="M689 726h180v-726h-180v306h-419v-306h-180v726h180v-279h419v279z" />
    <glyph glyph-name="H" unicode="h" horiz-adv-x="959" 
d="M689 726h180v-726h-180v306h-419v-306h-180v726h180v-279h419v279z" />
    <glyph glyph-name="Hbar" unicode="&#x126;" horiz-adv-x="959" 
d="M932 632v-122h-63v-510h-180v306h-419v-306h-180v510h-59v122h59v94h180v-94h419v94h180v-94h63zM689 447v63h-419v-63h419z" />
    <glyph glyph-name="Hbar" unicode="&#x127;" horiz-adv-x="959" 
d="M932 632v-122h-63v-510h-180v306h-419v-306h-180v510h-59v122h59v94h180v-94h419v94h180v-94h63zM689 447v63h-419v-63h419z" />
    <glyph glyph-name="Hcircumflex" unicode="&#x124;" horiz-adv-x="959" 
d="M477 875l-46 -84h-164l139 188h148l139 -188h-164l-45 84h-7zM689 726h180v-726h-180v306h-419v-306h-180v726h180v-279h419v279z" />
    <glyph glyph-name="Hcircumflex" unicode="&#x125;" horiz-adv-x="959" 
d="M477 875l-46 -84h-164l139 188h148l139 -188h-164l-45 84h-7zM689 726h180v-726h-180v306h-419v-306h-180v726h180v-279h419v279z" />
    <glyph glyph-name="I" unicode="I" horiz-adv-x="360" 
d="M90 0v726h180v-726h-180z" />
    <glyph glyph-name="I" unicode="i" horiz-adv-x="360" 
d="M90 0v726h180v-726h-180z" />
    <glyph glyph-name="IJ" unicode="&#x132;" horiz-adv-x="1054" 
d="M90 0v726h180v-726h-180zM600 -12c-58 0 -130 9 -200 21v134c67 -10 133 -19 183 -19c173 0 206 44 206 164v438h180v-420c0 -227 -82 -318 -369 -318z" />
    <glyph glyph-name="IJ" unicode="&#x133;" horiz-adv-x="1054" 
d="M90 0v726h180v-726h-180zM600 -12c-58 0 -130 9 -200 21v134c67 -10 133 -19 183 -19c173 0 206 44 206 164v438h180v-420c0 -227 -82 -318 -369 -318z" />
    <glyph glyph-name="Iacute" unicode="&#xcd;" horiz-adv-x="360" 
d="M102 805l102 185h196l-144 -185h-154zM90 0v726h180v-726h-180z" />
    <glyph glyph-name="Iacute" unicode="&#xed;" horiz-adv-x="360" 
d="M102 805l102 185h196l-144 -185h-154zM90 0v726h180v-726h-180z" />
    <glyph glyph-name="Ibreve" unicode="&#x12c;" horiz-adv-x="360" 
d="M166 803c-115 0 -195 61 -195 181h134c9 -65 36 -82 73 -82h6c40 0 67 27 73 82h133c-1 -121 -77 -181 -193 -181h-31zM90 0v726h180v-726h-180z" />
    <glyph glyph-name="Ibreve" unicode="&#x12d;" horiz-adv-x="360" 
d="M166 803c-115 0 -195 61 -195 181h134c9 -65 36 -82 73 -82h6c40 0 67 27 73 82h133c-1 -121 -77 -181 -193 -181h-31zM90 0v726h180v-726h-180z" />
    <glyph glyph-name="Icircumflex" unicode="&#xce;" horiz-adv-x="360" 
d="M-33 791l139 188h148l139 -188h-164l-45 84h-7l-46 -84h-164zM90 0v726h180v-726h-180z" />
    <glyph glyph-name="Icircumflex" unicode="&#xee;" horiz-adv-x="360" 
d="M-33 791l139 188h148l139 -188h-164l-45 84h-7l-46 -84h-164zM90 0v726h180v-726h-180z" />
    <glyph glyph-name="Idieresis" unicode="&#xcf;" horiz-adv-x="360" 
d="M67 808c-54 0 -82 27 -82 79s28 79 81 79c55 0 84 -27 84 -79s-29 -79 -83 -79zM292 808c-54 0 -82 27 -82 79s28 79 81 79c54 0 83 -27 83 -79s-28 -79 -82 -79zM90 0v726h180v-726h-180z" />
    <glyph glyph-name="Idieresis" unicode="&#xef;" horiz-adv-x="360" 
d="M67 808c-54 0 -82 27 -82 79s28 79 81 79c55 0 84 -27 84 -79s-29 -79 -83 -79zM292 808c-54 0 -82 27 -82 79s28 79 81 79c54 0 83 -27 83 -79s-28 -79 -82 -79zM90 0v726h180v-726h-180z" />
    <glyph glyph-name="Idotaccent" unicode="&#x130;" horiz-adv-x="360" 
d="M181 802c-63 0 -96 29 -96 85s32 85 95 85c64 0 97 -29 97 -85s-33 -85 -96 -85zM90 0v726h180v-726h-180z" />
    <glyph glyph-name="Igrave" unicode="&#xcc;" horiz-adv-x="360" 
d="M118 805l-143 185h196l102 -185h-155zM90 0v726h180v-726h-180z" />
    <glyph glyph-name="Igrave" unicode="&#xec;" horiz-adv-x="360" 
d="M118 805l-143 185h196l102 -185h-155zM90 0v726h180v-726h-180z" />
    <glyph glyph-name="Imacron" unicode="&#x12a;" horiz-adv-x="360" 
d="M-12 831v112h386v-112h-386zM90 0v726h180v-726h-180z" />
    <glyph glyph-name="Imacron" unicode="&#x12b;" horiz-adv-x="360" 
d="M-12 831v112h386v-112h-386zM90 0v726h180v-726h-180z" />
    <glyph glyph-name="Iogonek" unicode="&#x12e;" horiz-adv-x="360" 
d="M270 0c-140 -68 -151 -138 -151 -164c0 -33 11 -43 52 -43h46v-102h-115c-82 0 -125 39 -125 117c0 59 22 131 113 202v716h180v-726z" />
    <glyph glyph-name="Iogonek" unicode="&#x12f;" horiz-adv-x="360" 
d="M270 0c-140 -68 -151 -138 -151 -164c0 -33 11 -43 52 -43h46v-102h-115c-82 0 -125 39 -125 117c0 59 22 131 113 202v716h180v-726z" />
    <glyph glyph-name="Itilde" unicode="&#x128;" horiz-adv-x="360" 
d="M18 799l-58 66c37 62 95 105 155 105c21 0 44 -5 72 -22l21 -13c21 -13 39 -23 59 -23c26 0 54 24 74 59l62 -57c-26 -63 -85 -114 -137 -114c-38 0 -59 12 -85 27l-21 12c-19 11 -39 15 -50 15c-30 0 -66 -23 -92 -55zM90 0v726h180v-726h-180z" />
    <glyph glyph-name="Itilde" unicode="&#x129;" horiz-adv-x="360" 
d="M18 799l-58 66c37 62 95 105 155 105c21 0 44 -5 72 -22l21 -13c21 -13 39 -23 59 -23c26 0 54 24 74 59l62 -57c-26 -63 -85 -114 -137 -114c-38 0 -59 12 -85 27l-21 12c-19 11 -39 15 -50 15c-30 0 -66 -23 -92 -55zM90 0v726h180v-726h-180z" />
    <glyph glyph-name="J" unicode="J" horiz-adv-x="694" 
d="M240 -12c-58 0 -130 9 -200 21v134c67 -10 133 -19 183 -19c173 0 206 44 206 164v438h180v-420c0 -227 -82 -318 -369 -318z" />
    <glyph glyph-name="J" unicode="j" horiz-adv-x="694" 
d="M240 -12c-58 0 -130 9 -200 21v134c67 -10 133 -19 183 -19c173 0 206 44 206 164v438h180v-420c0 -227 -82 -318 -369 -318z" />
    <glyph glyph-name="uni00A40301" horiz-adv-x="694" 
d="M439 805l102 185h196l-144 -185h-154zM240 -12c-58 0 -130 9 -200 21v134c67 -10 133 -19 183 -19c173 0 206 44 206 164v438h180v-420c0 -227 -82 -318 -369 -318z" />
    <glyph glyph-name="Jcircumflex" unicode="&#x134;" horiz-adv-x="694" 
d="M304 791l139 188h148l139 -188h-164l-45 84h-7l-46 -84h-164zM240 -12c-58 0 -130 9 -200 21v134c67 -10 133 -19 183 -19c173 0 206 44 206 164v438h180v-420c0 -227 -82 -318 -369 -318z" />
    <glyph glyph-name="Jcircumflex" unicode="&#x135;" horiz-adv-x="694" 
d="M304 791l139 188h148l139 -188h-164l-45 84h-7l-46 -84h-164zM240 -12c-58 0 -130 9 -200 21v134c67 -10 133 -19 183 -19c173 0 206 44 206 164v438h180v-420c0 -227 -82 -318 -369 -318z" />
    <glyph glyph-name="K" unicode="K" horiz-adv-x="875" 
d="M645 0l-271 327l-105 -90v-237h-179v726h179v-307l346 307h226l-344 -294l355 -432h-207z" />
    <glyph glyph-name="K" unicode="k" horiz-adv-x="875" 
d="M645 0l-271 327l-105 -90v-237h-179v726h179v-307l346 307h226l-344 -294l355 -432h-207z" />
    <glyph glyph-name="uni0136" unicode="&#x136;" horiz-adv-x="875" 
d="M497 432l355 -432h-207l-271 327l-105 -90v-237h-179v726h179v-307l346 307h226zM278 -336l31 274h162l-66 -274h-127z" />
    <glyph glyph-name="uni0136" unicode="&#x137;" horiz-adv-x="875" 
d="M497 432l355 -432h-207l-271 327l-105 -90v-237h-179v726h179v-307l346 307h226zM278 -336l31 274h162l-66 -274h-127z" />
    <glyph glyph-name="L" unicode="L" horiz-adv-x="754" 
d="M270 141h449v-141h-629v726h180v-585z" />
    <glyph glyph-name="L" unicode="l" horiz-adv-x="754" 
d="M270 141h449v-141h-629v726h180v-585z" />
    <glyph glyph-name="Lacute" unicode="&#x139;" horiz-adv-x="754" 
d="M399 990l-144 -185h-154l102 185h196zM270 141h449v-141h-629v726h180v-585z" />
    <glyph glyph-name="Lacute" unicode="&#x13a;" horiz-adv-x="754" 
d="M399 990l-144 -185h-154l102 185h196zM270 141h449v-141h-629v726h180v-585z" />
    <glyph glyph-name="Lcaron" unicode="&#x13d;" horiz-adv-x="754" 
d="M270 141h449v-141h-629v726h180v-585zM588 726l-66 -274h-127l31 274h162z" />
    <glyph glyph-name="Lcaron" unicode="&#x13e;" horiz-adv-x="754" 
d="M270 141h449v-141h-629v726h180v-585zM588 726l-66 -274h-127l31 274h162z" />
    <glyph glyph-name="uni013B" unicode="&#x13b;" horiz-adv-x="754" 
d="M270 141h449v-141h-629v726h180v-585zM344 -336l31 274h162l-66 -274h-127z" />
    <glyph glyph-name="uni013B" unicode="&#x13c;" horiz-adv-x="754" 
d="M270 141h449v-141h-629v726h180v-585zM344 -336l31 274h162l-66 -274h-127z" />
    <glyph glyph-name="Ldot" unicode="&#x13f;" horiz-adv-x="754" 
d="M270 141h449v-141h-629v726h180v-585zM559 309c-67 0 -99 28 -99 86c0 57 32 85 98 85c67 0 100 -28 100 -85c0 -58 -32 -86 -99 -86z" />
    <glyph glyph-name="Ldot" unicode="&#x140;" horiz-adv-x="754" 
d="M270 141h449v-141h-629v726h180v-585zM559 309c-67 0 -99 28 -99 86c0 57 32 85 98 85c67 0 100 -28 100 -85c0 -58 -32 -86 -99 -86z" />
    <glyph glyph-name="Lslash" unicode="&#x141;" horiz-adv-x="754" 
d="M270 141h449v-141h-629v226l-82 -39v135l82 39v365h180v-278l191 91v-135l-191 -91v-172z" />
    <glyph glyph-name="Lslash" unicode="&#x142;" horiz-adv-x="754" 
d="M270 141h449v-141h-629v226l-82 -39v135l82 39v365h180v-278l191 91v-135l-191 -91v-172z" />
    <glyph glyph-name="M" unicode="M" horiz-adv-x="1119" 
d="M863 726h166v-726h-173v424l-226 -424h-130l-237 425v-425h-173v726h176l301 -531z" />
    <glyph glyph-name="M" unicode="m" horiz-adv-x="1119" 
d="M863 726h166v-726h-173v424l-226 -424h-130l-237 425v-425h-173v726h176l301 -531z" />
    <glyph glyph-name="N" unicode="N" horiz-adv-x="986" 
d="M720 726h176v-726h-161l-470 486v-486h-175v726h175l455 -470v470z" />
    <glyph glyph-name="N" unicode="n" horiz-adv-x="986" 
d="M720 726h176v-726h-161l-470 486v-486h-175v726h175l455 -470v470z" />
    <glyph glyph-name="Nacute" unicode="&#x143;" horiz-adv-x="986" 
d="M729 990l-144 -185h-154l102 185h196zM720 726h176v-726h-161l-470 486v-486h-175v726h175l455 -470v470z" />
    <glyph glyph-name="Nacute" unicode="&#x144;" horiz-adv-x="986" 
d="M729 990l-144 -185h-154l102 185h196zM720 726h176v-726h-161l-470 486v-486h-175v726h175l455 -470v470z" />
    <glyph glyph-name="Ncaron" unicode="&#x147;" horiz-adv-x="986" 
d="M583 789h-148l-139 188h164l46 -84h7l45 84h164zM720 726h176v-726h-161l-470 486v-486h-175v726h175l455 -470v470z" />
    <glyph glyph-name="Ncaron" unicode="&#x148;" horiz-adv-x="986" 
d="M583 789h-148l-139 188h164l46 -84h7l45 84h164zM720 726h176v-726h-161l-470 486v-486h-175v726h175l455 -470v470z" />
    <glyph glyph-name="uni0145" unicode="&#x145;" horiz-adv-x="986" 
d="M720 726h176v-726h-161l-470 486v-486h-175v726h175l455 -470v470zM377 -336l31 274h162l-66 -274h-127z" />
    <glyph glyph-name="uni0145" unicode="&#x146;" horiz-adv-x="986" 
d="M720 726h176v-726h-161l-470 486v-486h-175v726h175l455 -470v470zM377 -336l31 274h162l-66 -274h-127z" />
    <glyph glyph-name="Eng" unicode="&#x14a;" horiz-adv-x="986" 
d="M720 726h176v-674c0 -201 -69 -286 -280 -286c-24 0 -48 1 -75 3v141c23 -4 44 -5 62 -5c79 0 107 30 114 113l-452 468v-486h-175v726h175l455 -470v470z" />
    <glyph glyph-name="Eng" unicode="&#x14b;" horiz-adv-x="986" 
d="M720 726h176v-674c0 -201 -69 -286 -280 -286c-24 0 -48 1 -75 3v141c23 -4 44 -5 62 -5c79 0 107 30 114 113l-452 468v-486h-175v726h175l455 -470v470z" />
    <glyph glyph-name="Ntilde" unicode="&#xd1;" horiz-adv-x="986" 
d="M439 854c-30 0 -66 -23 -92 -55l-58 66c37 62 95 105 155 105c21 0 44 -5 72 -22l21 -13c21 -13 39 -23 59 -23c26 0 54 24 74 59l62 -57c-26 -63 -85 -114 -137 -114c-38 0 -59 12 -85 27l-21 12c-19 11 -39 15 -50 15zM720 726h176v-726h-161l-470 486v-486h-175v726
h175l455 -470v470z" />
    <glyph glyph-name="Ntilde" unicode="&#xf1;" horiz-adv-x="986" 
d="M439 854c-30 0 -66 -23 -92 -55l-58 66c37 62 95 105 155 105c21 0 44 -5 72 -22l21 -13c21 -13 39 -23 59 -23c26 0 54 24 74 59l62 -57c-26 -63 -85 -114 -137 -114c-38 0 -59 12 -85 27l-21 12c-19 11 -39 15 -50 15zM720 726h176v-726h-161l-470 486v-486h-175v726
h175l455 -470v470z" />
    <glyph glyph-name="O" unicode="O" horiz-adv-x="1003" 
d="M501 -12c-321 0 -445 145 -445 369c0 232 129 381 445 381s446 -149 446 -381c0 -225 -125 -369 -446 -369zM501 144c183 0 259 76 259 215c0 141 -77 223 -259 223c-181 0 -258 -82 -258 -223c0 -139 76 -215 258 -215z" />
    <glyph glyph-name="O" unicode="o" horiz-adv-x="1003" 
d="M501 -12c-321 0 -445 145 -445 369c0 232 129 381 445 381s446 -149 446 -381c0 -225 -125 -369 -446 -369zM501 144c183 0 259 76 259 215c0 141 -77 223 -259 223c-181 0 -258 -82 -258 -223c0 -139 76 -215 258 -215z" />
    <glyph glyph-name="Oacute" unicode="&#xd3;" horiz-adv-x="1003" 
d="M423 805l102 185h196l-144 -185h-154zM501 -12c-321 0 -445 145 -445 369c0 232 129 381 445 381s446 -149 446 -381c0 -225 -125 -369 -446 -369zM501 144c183 0 259 76 259 215c0 141 -77 223 -259 223c-181 0 -258 -82 -258 -223c0 -139 76 -215 258 -215z" />
    <glyph glyph-name="Oacute" unicode="&#xf3;" horiz-adv-x="1003" 
d="M423 805l102 185h196l-144 -185h-154zM501 -12c-321 0 -445 145 -445 369c0 232 129 381 445 381s446 -149 446 -381c0 -225 -125 -369 -446 -369zM501 144c183 0 259 76 259 215c0 141 -77 223 -259 223c-181 0 -258 -82 -258 -223c0 -139 76 -215 258 -215z" />
    <glyph glyph-name="Obreve" unicode="&#x14e;" horiz-adv-x="1003" 
d="M487 803c-115 0 -195 61 -195 181h134c9 -65 36 -82 73 -82h6c40 0 67 27 73 82h133c-1 -121 -77 -181 -193 -181h-31zM501 -12c-321 0 -445 145 -445 369c0 232 129 381 445 381s446 -149 446 -381c0 -225 -125 -369 -446 -369zM501 144c183 0 259 76 259 215
c0 141 -77 223 -259 223c-181 0 -258 -82 -258 -223c0 -139 76 -215 258 -215z" />
    <glyph glyph-name="Obreve" unicode="&#x14f;" horiz-adv-x="1003" 
d="M487 803c-115 0 -195 61 -195 181h134c9 -65 36 -82 73 -82h6c40 0 67 27 73 82h133c-1 -121 -77 -181 -193 -181h-31zM501 -12c-321 0 -445 145 -445 369c0 232 129 381 445 381s446 -149 446 -381c0 -225 -125 -369 -446 -369zM501 144c183 0 259 76 259 215
c0 141 -77 223 -259 223c-181 0 -258 -82 -258 -223c0 -139 76 -215 258 -215z" />
    <glyph glyph-name="Ocircumflex" unicode="&#xd4;" horiz-adv-x="1003" 
d="M288 791l139 188h148l139 -188h-164l-45 84h-7l-46 -84h-164zM501 -12c-321 0 -445 145 -445 369c0 232 129 381 445 381s446 -149 446 -381c0 -225 -125 -369 -446 -369zM501 144c183 0 259 76 259 215c0 141 -77 223 -259 223c-181 0 -258 -82 -258 -223
c0 -139 76 -215 258 -215z" />
    <glyph glyph-name="Ocircumflex" unicode="&#xf4;" horiz-adv-x="1003" 
d="M288 791l139 188h148l139 -188h-164l-45 84h-7l-46 -84h-164zM501 -12c-321 0 -445 145 -445 369c0 232 129 381 445 381s446 -149 446 -381c0 -225 -125 -369 -446 -369zM501 144c183 0 259 76 259 215c0 141 -77 223 -259 223c-181 0 -258 -82 -258 -223
c0 -139 76 -215 258 -215z" />
    <glyph glyph-name="Odieresis" unicode="&#xd6;" horiz-adv-x="1003" 
d="M388 808c-54 0 -82 27 -82 79s28 79 81 79c55 0 84 -27 84 -79s-29 -79 -83 -79zM613 808c-54 0 -82 27 -82 79s28 79 81 79c54 0 83 -27 83 -79s-28 -79 -82 -79zM501 -12c-321 0 -445 145 -445 369c0 232 129 381 445 381s446 -149 446 -381
c0 -225 -125 -369 -446 -369zM501 144c183 0 259 76 259 215c0 141 -77 223 -259 223c-181 0 -258 -82 -258 -223c0 -139 76 -215 258 -215z" />
    <glyph glyph-name="Odieresis" unicode="&#xf6;" horiz-adv-x="1003" 
d="M388 808c-54 0 -82 27 -82 79s28 79 81 79c55 0 84 -27 84 -79s-29 -79 -83 -79zM613 808c-54 0 -82 27 -82 79s28 79 81 79c54 0 83 -27 83 -79s-28 -79 -82 -79zM501 -12c-321 0 -445 145 -445 369c0 232 129 381 445 381s446 -149 446 -381
c0 -225 -125 -369 -446 -369zM501 144c183 0 259 76 259 215c0 141 -77 223 -259 223c-181 0 -258 -82 -258 -223c0 -139 76 -215 258 -215z" />
    <glyph glyph-name="Ograve" unicode="&#xd2;" horiz-adv-x="1003" 
d="M439 805l-143 185h196l102 -185h-155zM501 -12c-321 0 -445 145 -445 369c0 232 129 381 445 381s446 -149 446 -381c0 -225 -125 -369 -446 -369zM501 144c183 0 259 76 259 215c0 141 -77 223 -259 223c-181 0 -258 -82 -258 -223c0 -139 76 -215 258 -215z" />
    <glyph glyph-name="Ograve" unicode="&#xf2;" horiz-adv-x="1003" 
d="M439 805l-143 185h196l102 -185h-155zM501 -12c-321 0 -445 145 -445 369c0 232 129 381 445 381s446 -149 446 -381c0 -225 -125 -369 -446 -369zM501 144c183 0 259 76 259 215c0 141 -77 223 -259 223c-181 0 -258 -82 -258 -223c0 -139 76 -215 258 -215z" />
    <glyph glyph-name="Ohungarumlaut" unicode="&#x150;" horiz-adv-x="1003" 
d="M274 805l80 185h183l-114 -185h-149zM492 805l81 185h182l-114 -185h-149zM501 -12c-321 0 -445 145 -445 369c0 232 129 381 445 381s446 -149 446 -381c0 -225 -125 -369 -446 -369zM501 144c183 0 259 76 259 215c0 141 -77 223 -259 223c-181 0 -258 -82 -258 -223
c0 -139 76 -215 258 -215z" />
    <glyph glyph-name="Ohungarumlaut" unicode="&#x151;" horiz-adv-x="1003" 
d="M274 805l80 185h183l-114 -185h-149zM492 805l81 185h182l-114 -185h-149zM501 -12c-321 0 -445 145 -445 369c0 232 129 381 445 381s446 -149 446 -381c0 -225 -125 -369 -446 -369zM501 144c183 0 259 76 259 215c0 141 -77 223 -259 223c-181 0 -258 -82 -258 -223
c0 -139 76 -215 258 -215z" />
    <glyph glyph-name="Omacron" unicode="&#x14c;" horiz-adv-x="1003" 
d="M309 831v112h386v-112h-386zM501 -12c-321 0 -445 145 -445 369c0 232 129 381 445 381s446 -149 446 -381c0 -225 -125 -369 -446 -369zM501 144c183 0 259 76 259 215c0 141 -77 223 -259 223c-181 0 -258 -82 -258 -223c0 -139 76 -215 258 -215z" />
    <glyph glyph-name="Omacron" unicode="&#x14d;" horiz-adv-x="1003" 
d="M309 831v112h386v-112h-386zM501 -12c-321 0 -445 145 -445 369c0 232 129 381 445 381s446 -149 446 -381c0 -225 -125 -369 -446 -369zM501 144c183 0 259 76 259 215c0 141 -77 223 -259 223c-181 0 -258 -82 -258 -223c0 -139 76 -215 258 -215z" />
    <glyph glyph-name="Oslash" unicode="&#xd8;" horiz-adv-x="1003" 
d="M982 664l-98 -77c43 -62 63 -140 63 -230c0 -225 -125 -369 -446 -369c-126 0 -222 23 -292 63l-108 -85l-80 95l95 75c-41 59 -60 134 -60 221c0 232 129 381 445 381c126 0 222 -24 293 -67l111 88zM243 359c0 -41 7 -77 21 -106l384 303c-38 17 -87 26 -147 26
c-181 0 -258 -82 -258 -223zM760 359c0 43 -7 80 -22 112l-382 -303c38 -16 86 -24 145 -24c183 0 259 76 259 215z" />
    <glyph glyph-name="Oslash" unicode="&#xf8;" horiz-adv-x="1003" 
d="M982 664l-98 -77c43 -62 63 -140 63 -230c0 -225 -125 -369 -446 -369c-126 0 -222 23 -292 63l-108 -85l-80 95l95 75c-41 59 -60 134 -60 221c0 232 129 381 445 381c126 0 222 -24 293 -67l111 88zM243 359c0 -41 7 -77 21 -106l384 303c-38 17 -87 26 -147 26
c-181 0 -258 -82 -258 -223zM760 359c0 43 -7 80 -22 112l-382 -303c38 -16 86 -24 145 -24c183 0 259 76 259 215z" />
    <glyph glyph-name="Oslashacute" unicode="&#x1fe;" horiz-adv-x="1003" 
d="M721 990l-144 -185h-154l102 185h196zM982 664l-98 -77c43 -62 63 -140 63 -230c0 -225 -125 -369 -446 -369c-126 0 -222 23 -292 63l-108 -85l-80 95l95 75c-41 59 -60 134 -60 221c0 232 129 381 445 381c126 0 222 -24 293 -67l111 88zM243 359c0 -41 7 -77 21 -106
l384 303c-38 17 -87 26 -147 26c-181 0 -258 -82 -258 -223zM760 359c0 43 -7 80 -22 112l-382 -303c38 -16 86 -24 145 -24c183 0 259 76 259 215z" />
    <glyph glyph-name="Oslashacute" unicode="&#x1ff;" horiz-adv-x="1003" 
d="M721 990l-144 -185h-154l102 185h196zM982 664l-98 -77c43 -62 63 -140 63 -230c0 -225 -125 -369 -446 -369c-126 0 -222 23 -292 63l-108 -85l-80 95l95 75c-41 59 -60 134 -60 221c0 232 129 381 445 381c126 0 222 -24 293 -67l111 88zM243 359c0 -41 7 -77 21 -106
l384 303c-38 17 -87 26 -147 26c-181 0 -258 -82 -258 -223zM760 359c0 43 -7 80 -22 112l-382 -303c38 -16 86 -24 145 -24c183 0 259 76 259 215z" />
    <glyph glyph-name="Otilde" unicode="&#xd5;" horiz-adv-x="1003" 
d="M339 799l-58 66c37 62 95 105 155 105c21 0 44 -5 72 -22l21 -13c21 -13 39 -23 59 -23c26 0 54 24 74 59l62 -57c-26 -63 -85 -114 -137 -114c-38 0 -59 12 -85 27l-21 12c-19 11 -39 15 -50 15c-30 0 -66 -23 -92 -55zM501 -12c-321 0 -445 145 -445 369
c0 232 129 381 445 381s446 -149 446 -381c0 -225 -125 -369 -446 -369zM501 144c183 0 259 76 259 215c0 141 -77 223 -259 223c-181 0 -258 -82 -258 -223c0 -139 76 -215 258 -215z" />
    <glyph glyph-name="Otilde" unicode="&#xf5;" horiz-adv-x="1003" 
d="M339 799l-58 66c37 62 95 105 155 105c21 0 44 -5 72 -22l21 -13c21 -13 39 -23 59 -23c26 0 54 24 74 59l62 -57c-26 -63 -85 -114 -137 -114c-38 0 -59 12 -85 27l-21 12c-19 11 -39 15 -50 15c-30 0 -66 -23 -92 -55zM501 -12c-321 0 -445 145 -445 369
c0 232 129 381 445 381s446 -149 446 -381c0 -225 -125 -369 -446 -369zM501 144c183 0 259 76 259 215c0 141 -77 223 -259 223c-181 0 -258 -82 -258 -223c0 -139 76 -215 258 -215z" />
    <glyph glyph-name="OE" unicode="&#x152;" horiz-adv-x="1392" 
d="M1322 141v-141h-626c-66 -9 -114 -12 -170 -12c-334 0 -470 130 -470 375s136 375 470 375c59 0 111 -3 186 -12h609v-141h-475v-154h386v-136h-386v-154h476zM242 363c0 -150 71 -231 291 -231c42 0 84 2 133 8v447c-49 5 -91 7 -133 7c-220 0 -291 -78 -291 -231z" />
    <glyph glyph-name="OE" unicode="&#x153;" horiz-adv-x="1392" 
d="M1322 141v-141h-626c-66 -9 -114 -12 -170 -12c-334 0 -470 130 -470 375s136 375 470 375c59 0 111 -3 186 -12h609v-141h-475v-154h386v-136h-386v-154h476zM242 363c0 -150 71 -231 291 -231c42 0 84 2 133 8v447c-49 5 -91 7 -133 7c-220 0 -291 -78 -291 -231z" />
    <glyph glyph-name="P" unicode="P" horiz-adv-x="888" 
d="M565 726c178 0 277 -93 277 -260s-99 -260 -277 -260h-295v-206h-180v726h475zM511 347c94 0 150 39 150 119s-56 119 -150 119h-241v-238h241z" />
    <glyph glyph-name="P" unicode="p" horiz-adv-x="888" 
d="M565 726c178 0 277 -93 277 -260s-99 -260 -277 -260h-295v-206h-180v726h475zM511 347c94 0 150 39 150 119s-56 119 -150 119h-241v-238h241z" />
    <glyph glyph-name="Thorn" unicode="&#xde;" horiz-adv-x="898" 
d="M565 630c178 0 277 -93 277 -260s-99 -260 -277 -260h-295v-110h-180v726h180v-96h295zM511 251c94 0 150 39 150 119s-56 119 -150 119h-241v-238h241z" />
    <glyph glyph-name="Thorn" unicode="&#xfe;" horiz-adv-x="898" 
d="M565 630c178 0 277 -93 277 -260s-99 -260 -277 -260h-295v-110h-180v726h180v-96h295zM511 251c94 0 150 39 150 119s-56 119 -150 119h-241v-238h241z" />
    <glyph glyph-name="Q" unicode="Q" horiz-adv-x="1003" 
d="M947 357c0 -176 -76 -301 -262 -349c30 -27 64 -63 83 -89l56 -76l-157 -78l-93 137c-50 74 -62 86 -125 86c-272 0 -393 159 -393 369c0 232 129 381 445 381s446 -149 446 -381zM501 144c183 0 259 76 259 215c0 141 -77 223 -259 223c-181 0 -258 -82 -258 -223
c0 -139 76 -215 258 -215z" />
    <glyph glyph-name="Q" unicode="q" horiz-adv-x="1003" 
d="M947 357c0 -176 -76 -301 -262 -349c30 -27 64 -63 83 -89l56 -76l-157 -78l-93 137c-50 74 -62 86 -125 86c-272 0 -393 159 -393 369c0 232 129 381 445 381s446 -149 446 -381zM501 144c183 0 259 76 259 215c0 141 -77 223 -259 223c-181 0 -258 -82 -258 -223
c0 -139 76 -215 258 -215z" />
    <glyph glyph-name="R" unicode="R" horiz-adv-x="926" 
d="M786 129l110 -129h-216l-123 150c-33 40 -56 56 -129 56h-158v-206h-180v726h480c179 0 278 -93 278 -260c0 -134 -72 -207 -158 -239c35 -26 69 -66 96 -98zM517 347c95 0 150 39 150 119s-54 119 -150 119h-247v-238h247z" />
    <glyph glyph-name="R" unicode="r" horiz-adv-x="926" 
d="M786 129l110 -129h-216l-123 150c-33 40 -56 56 -129 56h-158v-206h-180v726h480c179 0 278 -93 278 -260c0 -134 -72 -207 -158 -239c35 -26 69 -66 96 -98zM517 347c95 0 150 39 150 119s-54 119 -150 119h-247v-238h247z" />
    <glyph glyph-name="Racute" unicode="&#x154;" horiz-adv-x="926" 
d="M698 990l-144 -185h-154l102 185h196zM786 129l110 -129h-216l-123 150c-33 40 -56 56 -129 56h-158v-206h-180v726h480c179 0 278 -93 278 -260c0 -134 -72 -207 -158 -239c35 -26 69 -66 96 -98zM517 347c95 0 150 39 150 119s-54 119 -150 119h-247v-238h247z" />
    <glyph glyph-name="Racute" unicode="&#x155;" horiz-adv-x="926" 
d="M698 990l-144 -185h-154l102 185h196zM786 129l110 -129h-216l-123 150c-33 40 -56 56 -129 56h-158v-206h-180v726h480c179 0 278 -93 278 -260c0 -134 -72 -207 -158 -239c35 -26 69 -66 96 -98zM517 347c95 0 150 39 150 119s-54 119 -150 119h-247v-238h247z" />
    <glyph glyph-name="Rcaron" unicode="&#x158;" horiz-adv-x="926" 
d="M552 789h-148l-139 188h164l46 -84h7l45 84h164zM786 129l110 -129h-216l-123 150c-33 40 -56 56 -129 56h-158v-206h-180v726h480c179 0 278 -93 278 -260c0 -134 -72 -207 -158 -239c35 -26 69 -66 96 -98zM517 347c95 0 150 39 150 119s-54 119 -150 119h-247v-238
h247z" />
    <glyph glyph-name="Rcaron" unicode="&#x159;" horiz-adv-x="926" 
d="M552 789h-148l-139 188h164l46 -84h7l45 84h164zM786 129l110 -129h-216l-123 150c-33 40 -56 56 -129 56h-158v-206h-180v726h480c179 0 278 -93 278 -260c0 -134 -72 -207 -158 -239c35 -26 69 -66 96 -98zM517 347c95 0 150 39 150 119s-54 119 -150 119h-247v-238
h247z" />
    <glyph glyph-name="uni0156" unicode="&#x156;" horiz-adv-x="926" 
d="M786 129l110 -129h-216l-123 150c-33 40 -56 56 -129 56h-158v-206h-180v726h480c179 0 278 -93 278 -260c0 -134 -72 -207 -158 -239c35 -26 69 -66 96 -98zM517 347c95 0 150 39 150 119s-54 119 -150 119h-247v-238h247zM361 -336l31 274h162l-66 -274h-127z" />
    <glyph glyph-name="uni0156" unicode="&#x157;" horiz-adv-x="926" 
d="M786 129l110 -129h-216l-123 150c-33 40 -56 56 -129 56h-158v-206h-180v726h480c179 0 278 -93 278 -260c0 -134 -72 -207 -158 -239c35 -26 69 -66 96 -98zM517 347c95 0 150 39 150 119s-54 119 -150 119h-247v-238h247zM361 -336l31 274h162l-66 -274h-127z" />
    <glyph glyph-name="S" unicode="S" horiz-adv-x="860" 
d="M404 -12c-86 0 -225 8 -330 28v141c70 -16 219 -31 336 -31c100 0 216 7 216 80c0 45 -28 62 -76 67l-236 27c-144 16 -266 65 -266 219c0 179 167 219 396 219c89 0 200 -8 305 -28v-141c-79 18 -197 32 -303 32c-123 0 -219 -18 -219 -82c0 -37 32 -59 98 -67l241 -28
c183 -21 246 -102 246 -199c0 -202 -179 -237 -408 -237z" />
    <glyph glyph-name="S" unicode="s" horiz-adv-x="860" 
d="M404 -12c-86 0 -225 8 -330 28v141c70 -16 219 -31 336 -31c100 0 216 7 216 80c0 45 -28 62 -76 67l-236 27c-144 16 -266 65 -266 219c0 179 167 219 396 219c89 0 200 -8 305 -28v-141c-79 18 -197 32 -303 32c-123 0 -219 -18 -219 -82c0 -37 32 -59 98 -67l241 -28
c183 -21 246 -102 246 -199c0 -202 -179 -237 -408 -237z" />
    <glyph glyph-name="Sacute" unicode="&#x15a;" horiz-adv-x="860" 
d="M362 805l102 185h196l-144 -185h-154zM404 -12c-86 0 -225 8 -330 28v141c70 -16 219 -31 336 -31c100 0 216 7 216 80c0 45 -28 62 -76 67l-236 27c-144 16 -266 65 -266 219c0 179 167 219 396 219c89 0 200 -8 305 -28v-141c-79 18 -197 32 -303 32
c-123 0 -219 -18 -219 -82c0 -37 32 -59 98 -67l241 -28c183 -21 246 -102 246 -199c0 -202 -179 -237 -408 -237z" />
    <glyph glyph-name="Sacute" unicode="&#x15b;" horiz-adv-x="860" 
d="M362 805l102 185h196l-144 -185h-154zM404 -12c-86 0 -225 8 -330 28v141c70 -16 219 -31 336 -31c100 0 216 7 216 80c0 45 -28 62 -76 67l-236 27c-144 16 -266 65 -266 219c0 179 167 219 396 219c89 0 200 -8 305 -28v-141c-79 18 -197 32 -303 32
c-123 0 -219 -18 -219 -82c0 -37 32 -59 98 -67l241 -28c183 -21 246 -102 246 -199c0 -202 -179 -237 -408 -237z" />
    <glyph glyph-name="Scaron" unicode="&#x160;" horiz-adv-x="860" 
d="M366 789l-139 188h164l46 -84h7l45 84h164l-139 -188h-148zM404 -12c-86 0 -225 8 -330 28v141c70 -16 219 -31 336 -31c100 0 216 7 216 80c0 45 -28 62 -76 67l-236 27c-144 16 -266 65 -266 219c0 179 167 219 396 219c89 0 200 -8 305 -28v-141
c-79 18 -197 32 -303 32c-123 0 -219 -18 -219 -82c0 -37 32 -59 98 -67l241 -28c183 -21 246 -102 246 -199c0 -202 -179 -237 -408 -237z" />
    <glyph glyph-name="Scaron" unicode="&#x161;" horiz-adv-x="860" 
d="M366 789l-139 188h164l46 -84h7l45 84h164l-139 -188h-148zM404 -12c-86 0 -225 8 -330 28v141c70 -16 219 -31 336 -31c100 0 216 7 216 80c0 45 -28 62 -76 67l-236 27c-144 16 -266 65 -266 219c0 179 167 219 396 219c89 0 200 -8 305 -28v-141
c-79 18 -197 32 -303 32c-123 0 -219 -18 -219 -82c0 -37 32 -59 98 -67l241 -28c183 -21 246 -102 246 -199c0 -202 -179 -237 -408 -237z" />
    <glyph glyph-name="Scedilla" unicode="&#x15e;" horiz-adv-x="860" 
d="M812 225c0 -197 -170 -235 -391 -237l-3 -33h35c74 0 121 -47 121 -123c0 -99 -46 -141 -131 -141h-195v102h168c12 0 25 4 25 30c0 27 -3 31 -27 31h-120l24 136c-78 4 -169 12 -244 26v141c70 -16 219 -31 336 -31c100 0 216 7 216 80c0 45 -28 62 -76 67l-236 27
c-144 16 -266 65 -266 219c0 179 167 219 396 219c89 0 200 -8 305 -28v-141c-79 18 -197 32 -303 32c-123 0 -219 -18 -219 -82c0 -37 32 -59 98 -67l241 -28c183 -21 246 -102 246 -199z" />
    <glyph glyph-name="Scedilla" unicode="&#x15f;" horiz-adv-x="860" 
d="M812 225c0 -197 -170 -235 -391 -237l-3 -33h35c74 0 121 -47 121 -123c0 -99 -46 -141 -131 -141h-195v102h168c12 0 25 4 25 30c0 27 -3 31 -27 31h-120l24 136c-78 4 -169 12 -244 26v141c70 -16 219 -31 336 -31c100 0 216 7 216 80c0 45 -28 62 -76 67l-236 27
c-144 16 -266 65 -266 219c0 179 167 219 396 219c89 0 200 -8 305 -28v-141c-79 18 -197 32 -303 32c-123 0 -219 -18 -219 -82c0 -37 32 -59 98 -67l241 -28c183 -21 246 -102 246 -199z" />
    <glyph glyph-name="Scircumflex" unicode="&#x15c;" horiz-adv-x="860" 
d="M227 791l139 188h148l139 -188h-164l-45 84h-7l-46 -84h-164zM404 -12c-86 0 -225 8 -330 28v141c70 -16 219 -31 336 -31c100 0 216 7 216 80c0 45 -28 62 -76 67l-236 27c-144 16 -266 65 -266 219c0 179 167 219 396 219c89 0 200 -8 305 -28v-141
c-79 18 -197 32 -303 32c-123 0 -219 -18 -219 -82c0 -37 32 -59 98 -67l241 -28c183 -21 246 -102 246 -199c0 -202 -179 -237 -408 -237z" />
    <glyph glyph-name="Scircumflex" unicode="&#x15d;" horiz-adv-x="860" 
d="M227 791l139 188h148l139 -188h-164l-45 84h-7l-46 -84h-164zM404 -12c-86 0 -225 8 -330 28v141c70 -16 219 -31 336 -31c100 0 216 7 216 80c0 45 -28 62 -76 67l-236 27c-144 16 -266 65 -266 219c0 179 167 219 396 219c89 0 200 -8 305 -28v-141
c-79 18 -197 32 -303 32c-123 0 -219 -18 -219 -82c0 -37 32 -59 98 -67l241 -28c183 -21 246 -102 246 -199c0 -202 -179 -237 -408 -237z" />
    <glyph glyph-name="uni0218" unicode="&#x218;" horiz-adv-x="860" 
d="M404 -12c-86 0 -225 8 -330 28v141c70 -16 219 -31 336 -31c100 0 216 7 216 80c0 45 -28 62 -76 67l-236 27c-144 16 -266 65 -266 219c0 179 167 219 396 219c89 0 200 -8 305 -28v-141c-79 18 -197 32 -303 32c-123 0 -219 -18 -219 -82c0 -37 32 -59 98 -67l241 -28
c183 -21 246 -102 246 -199c0 -202 -179 -237 -408 -237zM334 -336l31 274h162l-66 -274h-127z" />
    <glyph glyph-name="uni0218" unicode="&#x219;" horiz-adv-x="860" 
d="M404 -12c-86 0 -225 8 -330 28v141c70 -16 219 -31 336 -31c100 0 216 7 216 80c0 45 -28 62 -76 67l-236 27c-144 16 -266 65 -266 219c0 179 167 219 396 219c89 0 200 -8 305 -28v-141c-79 18 -197 32 -303 32c-123 0 -219 -18 -219 -82c0 -37 32 -59 98 -67l241 -28
c183 -21 246 -102 246 -199c0 -202 -179 -237 -408 -237zM334 -336l31 274h162l-66 -274h-127z" />
    <glyph glyph-name="T" unicode="T" horiz-adv-x="842" 
d="M800 726v-141h-289v-585h-180v585h-289v141h758z" />
    <glyph glyph-name="T" unicode="t" horiz-adv-x="842" 
d="M800 726v-141h-289v-585h-180v585h-289v141h758z" />
    <glyph glyph-name="Tbar" unicode="&#x166;" horiz-adv-x="842" 
d="M800 585h-289v-161h159v-122h-159v-302h-180v302h-158v122h158v161h-289v141h758v-141z" />
    <glyph glyph-name="Tbar" unicode="&#x167;" horiz-adv-x="842" 
d="M800 585h-289v-161h159v-122h-159v-302h-180v302h-158v122h158v161h-289v141h758v-141z" />
    <glyph glyph-name="Tcaron" unicode="&#x164;" horiz-adv-x="842" 
d="M495 789h-148l-139 188h164l46 -84h7l45 84h164zM800 726v-141h-289v-585h-180v585h-289v141h758z" />
    <glyph glyph-name="Tcaron" unicode="&#x165;" horiz-adv-x="842" 
d="M495 789h-148l-139 188h164l46 -84h7l45 84h164zM800 726v-141h-289v-585h-180v585h-289v141h758z" />
    <glyph glyph-name="uni0162" unicode="&#x162;" horiz-adv-x="842" 
d="M800 726v-141h-289v-585h-180v585h-289v141h758zM305 -336l31 274h162l-66 -274h-127z" />
    <glyph glyph-name="uni0162" unicode="&#x163;" horiz-adv-x="842" 
d="M800 726v-141h-289v-585h-180v585h-289v141h758zM305 -336l31 274h162l-66 -274h-127z" />
    <glyph glyph-name="uni021A" unicode="&#x21a;" horiz-adv-x="842" 
d="M800 726v-141h-289v-585h-180v585h-289v141h758zM305 -336l31 274h162l-66 -274h-127z" />
    <glyph glyph-name="uni021A" unicode="&#x21b;" horiz-adv-x="842" 
d="M800 726v-141h-289v-585h-180v585h-289v141h758zM305 -336l31 274h162l-66 -274h-127z" />
    <glyph glyph-name="U" unicode="U" horiz-adv-x="939" 
d="M472 -12c-205 0 -387 49 -387 329v409h180v-380c0 -142 60 -204 207 -204c143 0 202 62 202 204v380h180v-409c0 -280 -181 -329 -382 -329z" />
    <glyph glyph-name="U" unicode="u" horiz-adv-x="939" 
d="M472 -12c-205 0 -387 49 -387 329v409h180v-380c0 -142 60 -204 207 -204c143 0 202 62 202 204v380h180v-409c0 -280 -181 -329 -382 -329z" />
    <glyph glyph-name="Uacute" unicode="&#xda;" horiz-adv-x="939" 
d="M389 805l102 185h196l-144 -185h-154zM472 -12c-205 0 -387 49 -387 329v409h180v-380c0 -142 60 -204 207 -204c143 0 202 62 202 204v380h180v-409c0 -280 -181 -329 -382 -329z" />
    <glyph glyph-name="Uacute" unicode="&#xfa;" horiz-adv-x="939" 
d="M389 805l102 185h196l-144 -185h-154zM472 -12c-205 0 -387 49 -387 329v409h180v-380c0 -142 60 -204 207 -204c143 0 202 62 202 204v380h180v-409c0 -280 -181 -329 -382 -329z" />
    <glyph glyph-name="Ubreve" unicode="&#x16c;" horiz-adv-x="939" 
d="M453 803c-115 0 -195 61 -195 181h134c9 -65 36 -82 73 -82h6c40 0 67 27 73 82h133c-1 -121 -77 -181 -193 -181h-31zM472 -12c-205 0 -387 49 -387 329v409h180v-380c0 -142 60 -204 207 -204c143 0 202 62 202 204v380h180v-409c0 -280 -181 -329 -382 -329z" />
    <glyph glyph-name="Ubreve" unicode="&#x16d;" horiz-adv-x="939" 
d="M453 803c-115 0 -195 61 -195 181h134c9 -65 36 -82 73 -82h6c40 0 67 27 73 82h133c-1 -121 -77 -181 -193 -181h-31zM472 -12c-205 0 -387 49 -387 329v409h180v-380c0 -142 60 -204 207 -204c143 0 202 62 202 204v380h180v-409c0 -280 -181 -329 -382 -329z" />
    <glyph glyph-name="Ucircumflex" unicode="&#xdb;" horiz-adv-x="939" 
d="M254 791l139 188h148l139 -188h-164l-45 84h-7l-46 -84h-164zM472 -12c-205 0 -387 49 -387 329v409h180v-380c0 -142 60 -204 207 -204c143 0 202 62 202 204v380h180v-409c0 -280 -181 -329 -382 -329z" />
    <glyph glyph-name="Ucircumflex" unicode="&#xfb;" horiz-adv-x="939" 
d="M254 791l139 188h148l139 -188h-164l-45 84h-7l-46 -84h-164zM472 -12c-205 0 -387 49 -387 329v409h180v-380c0 -142 60 -204 207 -204c143 0 202 62 202 204v380h180v-409c0 -280 -181 -329 -382 -329z" />
    <glyph glyph-name="Udieresis" unicode="&#xdc;" horiz-adv-x="939" 
d="M354 808c-54 0 -82 27 -82 79s28 79 81 79c55 0 84 -27 84 -79s-29 -79 -83 -79zM579 808c-54 0 -82 27 -82 79s28 79 81 79c54 0 83 -27 83 -79s-28 -79 -82 -79zM472 -12c-205 0 -387 49 -387 329v409h180v-380c0 -142 60 -204 207 -204c143 0 202 62 202 204v380h180
v-409c0 -280 -181 -329 -382 -329z" />
    <glyph glyph-name="Udieresis" unicode="&#xfc;" horiz-adv-x="939" 
d="M354 808c-54 0 -82 27 -82 79s28 79 81 79c55 0 84 -27 84 -79s-29 -79 -83 -79zM579 808c-54 0 -82 27 -82 79s28 79 81 79c54 0 83 -27 83 -79s-28 -79 -82 -79zM472 -12c-205 0 -387 49 -387 329v409h180v-380c0 -142 60 -204 207 -204c143 0 202 62 202 204v380h180
v-409c0 -280 -181 -329 -382 -329z" />
    <glyph glyph-name="Ugrave" unicode="&#xd9;" horiz-adv-x="939" 
d="M405 805l-143 185h196l102 -185h-155zM472 -12c-205 0 -387 49 -387 329v409h180v-380c0 -142 60 -204 207 -204c143 0 202 62 202 204v380h180v-409c0 -280 -181 -329 -382 -329z" />
    <glyph glyph-name="Ugrave" unicode="&#xf9;" horiz-adv-x="939" 
d="M405 805l-143 185h196l102 -185h-155zM472 -12c-205 0 -387 49 -387 329v409h180v-380c0 -142 60 -204 207 -204c143 0 202 62 202 204v380h180v-409c0 -280 -181 -329 -382 -329z" />
    <glyph glyph-name="Uhungarumlaut" unicode="&#x170;" horiz-adv-x="939" 
d="M240 805l80 185h183l-114 -185h-149zM458 805l81 185h182l-114 -185h-149zM472 -12c-205 0 -387 49 -387 329v409h180v-380c0 -142 60 -204 207 -204c143 0 202 62 202 204v380h180v-409c0 -280 -181 -329 -382 -329z" />
    <glyph glyph-name="Uhungarumlaut" unicode="&#x171;" horiz-adv-x="939" 
d="M240 805l80 185h183l-114 -185h-149zM458 805l81 185h182l-114 -185h-149zM472 -12c-205 0 -387 49 -387 329v409h180v-380c0 -142 60 -204 207 -204c143 0 202 62 202 204v380h180v-409c0 -280 -181 -329 -382 -329z" />
    <glyph glyph-name="Umacron" unicode="&#x16a;" horiz-adv-x="939" 
d="M275 831v112h386v-112h-386zM472 -12c-205 0 -387 49 -387 329v409h180v-380c0 -142 60 -204 207 -204c143 0 202 62 202 204v380h180v-409c0 -280 -181 -329 -382 -329z" />
    <glyph glyph-name="Umacron" unicode="&#x16b;" horiz-adv-x="939" 
d="M275 831v112h386v-112h-386zM472 -12c-205 0 -387 49 -387 329v409h180v-380c0 -142 60 -204 207 -204c143 0 202 62 202 204v380h180v-409c0 -280 -181 -329 -382 -329z" />
    <glyph glyph-name="Uogonek" unicode="&#x172;" horiz-adv-x="939" 
d="M674 726h180v-409c0 -106 -15 -206 -110 -265c-189 -117 -189 -180 -189 -216c0 -33 13 -43 47 -43h26v-102h-95c-82 0 -125 40 -125 117c0 58 45 128 115 181c-17 0 -34 -1 -51 -1c-205 0 -387 49 -387 329v409h180v-380c0 -142 60 -204 207 -204c143 0 202 62 202 204
v380z" />
    <glyph glyph-name="Uogonek" unicode="&#x173;" horiz-adv-x="939" 
d="M674 726h180v-409c0 -106 -15 -206 -110 -265c-189 -117 -189 -180 -189 -216c0 -33 13 -43 47 -43h26v-102h-95c-82 0 -125 40 -125 117c0 58 45 128 115 181c-17 0 -34 -1 -51 -1c-205 0 -387 49 -387 329v409h180v-380c0 -142 60 -204 207 -204c143 0 202 62 202 204
v380z" />
    <glyph glyph-name="Uring" unicode="&#x16e;" horiz-adv-x="939" 
d="M436 766c-58 0 -95 37 -95 108s37 108 95 108h63c58 0 96 -37 96 -108s-38 -108 -96 -108h-63zM457 833h21c21 0 35 15 35 41s-14 41 -35 41h-21c-21 0 -34 -15 -34 -41s14 -41 34 -41zM472 -12c-205 0 -387 49 -387 329v409h180v-380c0 -142 60 -204 207 -204
c143 0 202 62 202 204v380h180v-409c0 -280 -181 -329 -382 -329z" />
    <glyph glyph-name="Uring" unicode="&#x16f;" horiz-adv-x="939" 
d="M436 766c-58 0 -95 37 -95 108s37 108 95 108h63c58 0 96 -37 96 -108s-38 -108 -96 -108h-63zM457 833h21c21 0 35 15 35 41s-14 41 -35 41h-21c-21 0 -34 -15 -34 -41s14 -41 34 -41zM472 -12c-205 0 -387 49 -387 329v409h180v-380c0 -142 60 -204 207 -204
c143 0 202 62 202 204v380h180v-409c0 -280 -181 -329 -382 -329z" />
    <glyph glyph-name="Utilde" unicode="&#x168;" horiz-adv-x="939" 
d="M305 799l-58 66c37 62 95 105 155 105c21 0 44 -5 72 -22l21 -13c21 -13 39 -23 59 -23c26 0 54 24 74 59l62 -57c-26 -63 -85 -114 -137 -114c-38 0 -59 12 -85 27l-21 12c-19 11 -39 15 -50 15c-30 0 -66 -23 -92 -55zM472 -12c-205 0 -387 49 -387 329v409h180v-380
c0 -142 60 -204 207 -204c143 0 202 62 202 204v380h180v-409c0 -280 -181 -329 -382 -329z" />
    <glyph glyph-name="Utilde" unicode="&#x169;" horiz-adv-x="939" 
d="M305 799l-58 66c37 62 95 105 155 105c21 0 44 -5 72 -22l21 -13c21 -13 39 -23 59 -23c26 0 54 24 74 59l62 -57c-26 -63 -85 -114 -137 -114c-38 0 -59 12 -85 27l-21 12c-19 11 -39 15 -50 15c-30 0 -66 -23 -92 -55zM472 -12c-205 0 -387 49 -387 329v409h180v-380
c0 -142 60 -204 207 -204c143 0 202 62 202 204v380h180v-409c0 -280 -181 -329 -382 -329z" />
    <glyph glyph-name="V" unicode="V" horiz-adv-x="887" 
d="M674 726h201l-360 -726h-143l-360 726h199l238 -505z" />
    <glyph glyph-name="V" unicode="v" horiz-adv-x="887" 
d="M674 726h201l-360 -726h-143l-360 726h199l238 -505z" />
    <glyph glyph-name="W" unicode="W" horiz-adv-x="1260" 
d="M1064 726h174l-289 -726h-174l-146 470l-146 -470h-175l-286 726h188l183 -505l161 505h156l171 -511z" />
    <glyph glyph-name="W" unicode="w" horiz-adv-x="1260" 
d="M1064 726h174l-289 -726h-174l-146 470l-146 -470h-175l-286 726h188l183 -505l161 505h156l171 -511z" />
    <glyph glyph-name="Wacute" unicode="&#x1e82;" horiz-adv-x="1260" 
d="M850 990l-144 -185h-154l102 185h196zM1064 726h174l-289 -726h-174l-146 470l-146 -470h-175l-286 726h188l183 -505l161 505h156l171 -511z" />
    <glyph glyph-name="Wacute" unicode="&#x1e83;" horiz-adv-x="1260" 
d="M850 990l-144 -185h-154l102 185h196zM1064 726h174l-289 -726h-174l-146 470l-146 -470h-175l-286 726h188l183 -505l161 505h156l171 -511z" />
    <glyph glyph-name="Wcircumflex" unicode="&#x174;" horiz-adv-x="1260" 
d="M627 875l-46 -84h-164l139 188h148l139 -188h-164l-45 84h-7zM1064 726h174l-289 -726h-174l-146 470l-146 -470h-175l-286 726h188l183 -505l161 505h156l171 -511z" />
    <glyph glyph-name="Wcircumflex" unicode="&#x175;" horiz-adv-x="1260" 
d="M627 875l-46 -84h-164l139 188h148l139 -188h-164l-45 84h-7zM1064 726h174l-289 -726h-174l-146 470l-146 -470h-175l-286 726h188l183 -505l161 505h156l171 -511z" />
    <glyph glyph-name="Wdieresis" unicode="&#x1e84;" horiz-adv-x="1260" 
d="M517 808c-54 0 -82 27 -82 79s28 79 81 79c55 0 84 -27 84 -79s-29 -79 -83 -79zM742 808c-54 0 -82 27 -82 79s28 79 81 79c54 0 83 -27 83 -79s-28 -79 -82 -79zM1064 726h174l-289 -726h-174l-146 470l-146 -470h-175l-286 726h188l183 -505l161 505h156l171 -511z
" />
    <glyph glyph-name="Wdieresis" unicode="&#x1e85;" horiz-adv-x="1260" 
d="M517 808c-54 0 -82 27 -82 79s28 79 81 79c55 0 84 -27 84 -79s-29 -79 -83 -79zM742 808c-54 0 -82 27 -82 79s28 79 81 79c54 0 83 -27 83 -79s-28 -79 -82 -79zM1064 726h174l-289 -726h-174l-146 470l-146 -470h-175l-286 726h188l183 -505l161 505h156l171 -511z
" />
    <glyph glyph-name="Wgrave" unicode="&#x1e80;" horiz-adv-x="1260" 
d="M723 805h-155l-143 185h196zM1064 726h174l-289 -726h-174l-146 470l-146 -470h-175l-286 726h188l183 -505l161 505h156l171 -511z" />
    <glyph glyph-name="Wgrave" unicode="&#x1e81;" horiz-adv-x="1260" 
d="M723 805h-155l-143 185h196zM1064 726h174l-289 -726h-174l-146 470l-146 -470h-175l-286 726h188l183 -505l161 505h156l171 -511z" />
    <glyph glyph-name="X" unicode="X" horiz-adv-x="898" 
d="M888 0h-223l-219 254l-229 -254h-201l331 369l-308 357h223l199 -231l207 231h201l-310 -345z" />
    <glyph glyph-name="X" unicode="x" horiz-adv-x="898" 
d="M888 0h-223l-219 254l-229 -254h-201l331 369l-308 357h223l199 -231l207 231h201l-310 -345z" />
    <glyph glyph-name="Y" unicode="Y" horiz-adv-x="854" 
d="M854 726l-340 -445v-281h-180v284l-334 442h214l211 -286l215 286h214z" />
    <glyph glyph-name="Y" unicode="y" horiz-adv-x="854" 
d="M854 726l-340 -445v-281h-180v284l-334 442h214l211 -286l215 286h214z" />
    <glyph glyph-name="Yacute" unicode="&#xdd;" horiz-adv-x="854" 
d="M645 990l-144 -185h-154l102 185h196zM854 726l-340 -445v-281h-180v284l-334 442h214l211 -286l215 286h214z" />
    <glyph glyph-name="Yacute" unicode="&#xfd;" horiz-adv-x="854" 
d="M645 990l-144 -185h-154l102 185h196zM854 726l-340 -445v-281h-180v284l-334 442h214l211 -286l215 286h214z" />
    <glyph glyph-name="Ycircumflex" unicode="&#x176;" horiz-adv-x="854" 
d="M422 875l-46 -84h-164l139 188h148l139 -188h-164l-45 84h-7zM854 726l-340 -445v-281h-180v284l-334 442h214l211 -286l215 286h214z" />
    <glyph glyph-name="Ycircumflex" unicode="&#x177;" horiz-adv-x="854" 
d="M422 875l-46 -84h-164l139 188h148l139 -188h-164l-45 84h-7zM854 726l-340 -445v-281h-180v284l-334 442h214l211 -286l215 286h214z" />
    <glyph glyph-name="Ydieresis" unicode="&#xff;" horiz-adv-x="854" 
d="M312 808c-54 0 -82 27 -82 79s28 79 81 79c55 0 84 -27 84 -79s-29 -79 -83 -79zM537 808c-54 0 -82 27 -82 79s28 79 81 79c54 0 83 -27 83 -79s-28 -79 -82 -79zM854 726l-340 -445v-281h-180v284l-334 442h214l211 -286l215 286h214z" />
    <glyph glyph-name="Ydieresis" unicode="&#x178;" horiz-adv-x="854" 
d="M312 808c-54 0 -82 27 -82 79s28 79 81 79c55 0 84 -27 84 -79s-29 -79 -83 -79zM537 808c-54 0 -82 27 -82 79s28 79 81 79c54 0 83 -27 83 -79s-28 -79 -82 -79zM854 726l-340 -445v-281h-180v284l-334 442h214l211 -286l215 286h214z" />
    <glyph glyph-name="Ygrave" unicode="&#x1ef2;" horiz-adv-x="854" 
d="M518 805h-155l-143 185h196zM854 726l-340 -445v-281h-180v284l-334 442h214l211 -286l215 286h214z" />
    <glyph glyph-name="Ygrave" unicode="&#x1ef3;" horiz-adv-x="854" 
d="M518 805h-155l-143 185h196zM854 726l-340 -445v-281h-180v284l-334 442h214l211 -286l215 286h214z" />
    <glyph glyph-name="Z" unicode="Z" horiz-adv-x="845" 
d="M299 141h481v-141h-715v128l461 457h-459v141h704v-128z" />
    <glyph glyph-name="Z" unicode="z" horiz-adv-x="845" 
d="M299 141h481v-141h-715v128l461 457h-459v141h704v-128z" />
    <glyph glyph-name="Zacute" unicode="&#x179;" horiz-adv-x="845" 
d="M643 990l-144 -185h-154l102 185h196zM299 141h481v-141h-715v128l461 457h-459v141h704v-128z" />
    <glyph glyph-name="Zacute" unicode="&#x17a;" horiz-adv-x="845" 
d="M643 990l-144 -185h-154l102 185h196zM299 141h481v-141h-715v128l461 457h-459v141h704v-128z" />
    <glyph glyph-name="Zcaron" unicode="&#x17d;" horiz-adv-x="845" 
d="M497 789h-148l-139 188h164l46 -84h7l45 84h164zM299 141h481v-141h-715v128l461 457h-459v141h704v-128z" />
    <glyph glyph-name="Zcaron" unicode="&#x17e;" horiz-adv-x="845" 
d="M497 789h-148l-139 188h164l46 -84h7l45 84h164zM299 141h481v-141h-715v128l461 457h-459v141h704v-128z" />
    <glyph glyph-name="Zdotaccent" unicode="&#x17b;" horiz-adv-x="845" 
d="M424 802c-63 0 -96 29 -96 85s32 85 95 85c64 0 97 -29 97 -85s-33 -85 -96 -85zM299 141h481v-141h-715v128l461 457h-459v141h704v-128z" />
    <glyph glyph-name="Zdotaccent" unicode="&#x17c;" horiz-adv-x="845" 
d="M424 802c-63 0 -96 29 -96 85s32 85 95 85c64 0 97 -29 97 -85s-33 -85 -96 -85zM299 141h481v-141h-715v128l461 457h-459v141h704v-128z" />
    <glyph glyph-name="ordfeminine" unicode="&#xaa;" horiz-adv-x="454" 
d="M183 437c-89 0 -133 21 -133 86c0 64 27 95 113 95h126c0 28 -5 39 -28 39h-189v69h205c92 0 127 -42 127 -137v-137c-18 -8 -71 -15 -143 -15h-78zM204 507h54c14 0 22 0 30 3v49h-84c-28 0 -34 -12 -34 -25s8 -27 34 -27z" />
    <glyph glyph-name="ordmasculine" unicode="&#xba;" horiz-adv-x="456" 
d="M228 437c-96 0 -183 24 -183 145c0 119 80 144 183 144s183 -25 183 -144c0 -121 -87 -145 -183 -145zM228 519c38 0 62 10 62 63c0 52 -29 63 -62 63s-62 -11 -62 -63c0 -53 24 -63 62 -63z" />
    <glyph glyph-name="uni0410" unicode="&#x410;" horiz-adv-x="901" 
d="M695 0l-65 133h-367l-63 -133h-188l366 726h143l368 -726h-194zM330 275h232l-118 242z" />
    <glyph glyph-name="uni0410" unicode="&#x430;" horiz-adv-x="901" 
d="M695 0l-65 133h-367l-63 -133h-188l366 726h143l368 -726h-194zM330 275h232l-118 242z" />
    <glyph glyph-name="uni0411" unicode="&#x411;" horiz-adv-x="889" 
d="M90 0v726h688v-141h-508v-137h292c153 0 267 -58 267 -222c0 -166 -111 -226 -267 -226h-472zM270 141h248c73 0 130 2 130 85s-57 86 -130 86h-248v-171z" />
    <glyph glyph-name="uni0411" unicode="&#x431;" horiz-adv-x="889" 
d="M90 0v726h688v-141h-508v-137h292c153 0 267 -58 267 -222c0 -166 -111 -226 -267 -226h-472zM270 141h248c73 0 130 2 130 85s-57 86 -130 86h-248v-171z" />
    <glyph glyph-name="uni0412" unicode="&#x412;" horiz-adv-x="890" 
d="M716 386c74 -28 114 -89 114 -176c0 -135 -103 -210 -288 -210h-452v726h496c139 0 217 -65 217 -182c0 -65 -31 -120 -87 -158zM628 511c0 48 -35 74 -97 74h-261v-149h261c62 0 97 27 97 75zM546 141c67 0 105 30 105 83s-38 82 -105 82h-276v-165h276z" />
    <glyph glyph-name="uni0412" unicode="&#x432;" horiz-adv-x="890" 
d="M716 386c74 -28 114 -89 114 -176c0 -135 -103 -210 -288 -210h-452v726h496c139 0 217 -65 217 -182c0 -65 -31 -120 -87 -158zM628 511c0 48 -35 74 -97 74h-261v-149h261c62 0 97 27 97 75zM546 141c67 0 105 30 105 83s-38 82 -105 82h-276v-165h276z" />
    <glyph glyph-name="uni0413" unicode="&#x413;" horiz-adv-x="741" 
d="M699 726v-141h-429v-585h-180v726h609z" />
    <glyph glyph-name="uni0413" unicode="&#x433;" horiz-adv-x="741" 
d="M699 726v-141h-429v-585h-180v726h609z" />
    <glyph glyph-name="uni0403" unicode="&#x403;" horiz-adv-x="741" 
d="M613 990l-144 -185h-154l102 185h196zM699 726v-141h-429v-585h-180v726h609z" />
    <glyph glyph-name="uni0403" unicode="&#x453;" horiz-adv-x="741" 
d="M613 990l-144 -185h-154l102 185h196zM699 726v-141h-429v-585h-180v726h609z" />
    <glyph glyph-name="uni0490" unicode="&#x490;" horiz-adv-x="738" 
d="M90 0v726h444v202h162v-343h-426v-585h-180z" />
    <glyph glyph-name="uni0490" unicode="&#x491;" horiz-adv-x="738" 
d="M90 0v726h444v202h162v-343h-426v-585h-180z" />
    <glyph glyph-name="uni0414" unicode="&#x414;" horiz-adv-x="977" 
d="M841 141h91v-324h-169v183h-550v-183h-168v324h71c22 31 34 79 49 225l38 360h638v-585zM661 141v444h-293l-25 -216c-13 -122 -23 -183 -40 -228h358z" />
    <glyph glyph-name="uni0414" unicode="&#x434;" horiz-adv-x="977" 
d="M841 141h91v-324h-169v183h-550v-183h-168v324h71c22 31 34 79 49 225l38 360h638v-585zM661 141v444h-293l-25 -216c-13 -122 -23 -183 -40 -228h358z" />
    <glyph glyph-name="uni0415" unicode="&#x415;" horiz-adv-x="816" 
d="M270 141h476v-141h-656v726h655v-141h-475v-154h386v-136h-386v-154z" />
    <glyph glyph-name="uni0415" unicode="&#x435;" horiz-adv-x="816" 
d="M270 141h476v-141h-656v726h655v-141h-475v-154h386v-136h-386v-154z" />
    <glyph glyph-name="uni0400" unicode="&#x400;" horiz-adv-x="816" 
d="M513 805h-155l-143 185h196zM270 141h476v-141h-656v726h655v-141h-475v-154h386v-136h-386v-154z" />
    <glyph glyph-name="uni0400" unicode="&#x450;" horiz-adv-x="816" 
d="M513 805h-155l-143 185h196zM270 141h476v-141h-656v726h655v-141h-475v-154h386v-136h-386v-154z" />
    <glyph glyph-name="uni0401" unicode="&#x401;" horiz-adv-x="816" 
d="M307 808c-54 0 -82 27 -82 79s28 79 81 79c55 0 84 -27 84 -79s-29 -79 -83 -79zM532 808c-54 0 -82 27 -82 79s28 79 81 79c54 0 83 -27 83 -79s-28 -79 -82 -79zM270 141h476v-141h-656v726h655v-141h-475v-154h386v-136h-386v-154z" />
    <glyph glyph-name="uni0401" unicode="&#x451;" horiz-adv-x="816" 
d="M307 808c-54 0 -82 27 -82 79s28 79 81 79c55 0 84 -27 84 -79s-29 -79 -83 -79zM532 808c-54 0 -82 27 -82 79s28 79 81 79c54 0 83 -27 83 -79s-28 -79 -82 -79zM270 141h476v-141h-656v726h655v-141h-475v-154h386v-136h-386v-154z" />
    <glyph glyph-name="uni0416" unicode="&#x416;" horiz-adv-x="1395" 
d="M1372 0h-203l-240 306h-142v-306h-179v306h-142l-240 -306h-203l323 406l-282 320h203l238 -279h103v279h179v-279h103l238 279h203l-282 -320z" />
    <glyph glyph-name="uni0416" unicode="&#x436;" horiz-adv-x="1395" 
d="M1372 0h-203l-240 306h-142v-306h-179v306h-142l-240 -306h-203l323 406l-282 320h203l238 -279h103v279h179v-279h103l238 279h203l-282 -320z" />
    <glyph glyph-name="uni0417" unicode="&#x417;" horiz-adv-x="736" 
d="M562 386c74 -28 114 -89 114 -176c0 -165 -152 -222 -371 -222c-75 0 -152 7 -215 18v141c62 -11 142 -18 206 -18c137 0 201 17 201 95c0 53 -38 82 -105 82h-242v130h227c62 0 97 27 97 75c0 71 -82 86 -186 86c-63 0 -142 -8 -198 -18v141c70 11 156 18 229 18
c193 0 330 -40 330 -194c0 -65 -31 -120 -87 -158z" />
    <glyph glyph-name="uni0417" unicode="&#x437;" horiz-adv-x="736" 
d="M562 386c74 -28 114 -89 114 -176c0 -165 -152 -222 -371 -222c-75 0 -152 7 -215 18v141c62 -11 142 -18 206 -18c137 0 201 17 201 95c0 53 -38 82 -105 82h-242v130h227c62 0 97 27 97 75c0 71 -82 86 -186 86c-63 0 -142 -8 -198 -18v141c70 11 156 18 229 18
c193 0 330 -40 330 -194c0 -65 -31 -120 -87 -158z" />
    <glyph glyph-name="uni0418" unicode="&#x418;" horiz-adv-x="986" 
d="M741 726h155v-726h-155v499l-510 -499h-141v726h156v-483z" />
    <glyph glyph-name="uni0418" unicode="&#x438;" horiz-adv-x="986" 
d="M741 726h155v-726h-155v499l-510 -499h-141v726h156v-483z" />
    <glyph glyph-name="uni0419" unicode="&#x419;" horiz-adv-x="986" 
d="M478 816c-115 0 -195 61 -195 181h134c9 -65 36 -82 73 -82h6c40 0 67 27 73 82h133c-1 -121 -77 -181 -193 -181h-31zM741 726h155v-726h-155v499l-510 -499h-141v726h156v-483z" />
    <glyph glyph-name="uni0419" unicode="&#x439;" horiz-adv-x="986" 
d="M478 816c-115 0 -195 61 -195 181h134c9 -65 36 -82 73 -82h6c40 0 67 27 73 82h133c-1 -121 -77 -181 -193 -181h-31zM741 726h155v-726h-155v499l-510 -499h-141v726h156v-483z" />
    <glyph glyph-name="uni040D" unicode="&#x40d;" horiz-adv-x="986" 
d="M585 805h-155l-143 185h196zM741 726h155v-726h-155v499l-510 -499h-141v726h156v-483z" />
    <glyph glyph-name="uni040D" unicode="&#x45d;" horiz-adv-x="986" 
d="M585 805h-155l-143 185h196zM741 726h155v-726h-155v499l-510 -499h-141v726h156v-483z" />
    <glyph glyph-name="uni041A" unicode="&#x41a;" horiz-adv-x="877" 
d="M854 0h-203l-240 306h-142v-306h-179v726h179v-279h103l238 279h203l-282 -320z" />
    <glyph glyph-name="uni041A" unicode="&#x43a;" horiz-adv-x="877" 
d="M854 0h-203l-240 306h-142v-306h-179v726h179v-279h103l238 279h203l-282 -320z" />
    <glyph glyph-name="uni040C" unicode="&#x40c;" horiz-adv-x="877" 
d="M676 990l-144 -185h-154l102 185h196zM854 0h-203l-240 306h-142v-306h-179v726h179v-279h103l238 279h203l-282 -320z" />
    <glyph glyph-name="uni040C" unicode="&#x45c;" horiz-adv-x="877" 
d="M676 990l-144 -185h-154l102 185h196zM854 0h-203l-240 306h-142v-306h-179v726h179v-279h103l238 279h203l-282 -320z" />
    <glyph glyph-name="uni041B" unicode="&#x41b;" horiz-adv-x="934" 
d="M35 0v141h55c58 0 73 23 78 114l25 471h651v-726h-180v585h-304l-25 -382c-9 -145 -48 -203 -180 -203h-120z" />
    <glyph glyph-name="uni041B" unicode="&#x43b;" horiz-adv-x="934" 
d="M35 0v141h55c58 0 73 23 78 114l25 471h651v-726h-180v585h-304l-25 -382c-9 -145 -48 -203 -180 -203h-120z" />
    <glyph glyph-name="uni041C" unicode="&#x41c;" horiz-adv-x="1119" 
d="M863 726h166v-726h-173v424l-226 -424h-130l-237 425v-425h-173v726h176l301 -531z" />
    <glyph glyph-name="uni041C" unicode="&#x43c;" horiz-adv-x="1119" 
d="M863 726h166v-726h-173v424l-226 -424h-130l-237 425v-425h-173v726h176l301 -531z" />
    <glyph glyph-name="uni041D" unicode="&#x41d;" horiz-adv-x="959" 
d="M689 726h180v-726h-180v306h-419v-306h-180v726h180v-279h419v279z" />
    <glyph glyph-name="uni041D" unicode="&#x43d;" horiz-adv-x="959" 
d="M689 726h180v-726h-180v306h-419v-306h-180v726h180v-279h419v279z" />
    <glyph glyph-name="uni041E" unicode="&#x41e;" horiz-adv-x="1003" 
d="M501 -12c-321 0 -445 145 -445 369c0 232 129 381 445 381s446 -149 446 -381c0 -225 -125 -369 -446 -369zM501 144c183 0 259 76 259 215c0 141 -77 223 -259 223c-181 0 -258 -82 -258 -223c0 -139 76 -215 258 -215z" />
    <glyph glyph-name="uni041E" unicode="&#x43e;" horiz-adv-x="1003" 
d="M501 -12c-321 0 -445 145 -445 369c0 232 129 381 445 381s446 -149 446 -381c0 -225 -125 -369 -446 -369zM501 144c183 0 259 76 259 215c0 141 -77 223 -259 223c-181 0 -258 -82 -258 -223c0 -139 76 -215 258 -215z" />
    <glyph glyph-name="uni041F" unicode="&#x41f;" horiz-adv-x="922" 
d="M90 0v726h742v-726h-180v585h-382v-585h-180z" />
    <glyph glyph-name="uni041F" unicode="&#x43f;" horiz-adv-x="922" 
d="M90 0v726h742v-726h-180v585h-382v-585h-180z" />
    <glyph glyph-name="uni0420" unicode="&#x420;" horiz-adv-x="888" 
d="M565 726c178 0 277 -93 277 -260s-99 -260 -277 -260h-295v-206h-180v726h475zM511 347c94 0 150 39 150 119s-56 119 -150 119h-241v-238h241z" />
    <glyph glyph-name="uni0420" unicode="&#x440;" horiz-adv-x="888" 
d="M565 726c178 0 277 -93 277 -260s-99 -260 -277 -260h-295v-206h-180v726h475zM511 347c94 0 150 39 150 119s-56 119 -150 119h-241v-238h241z" />
    <glyph glyph-name="uni0421" unicode="&#x421;" horiz-adv-x="881" 
d="M526 -12c-334 0 -470 130 -470 375s136 375 470 375c82 0 150 -5 283 -26v-144c-123 20 -199 26 -276 26c-220 0 -291 -78 -291 -231c0 -150 71 -231 291 -231c78 0 153 7 276 31v-144c-133 -25 -200 -31 -283 -31z" />
    <glyph glyph-name="uni0421" unicode="&#x441;" horiz-adv-x="881" 
d="M526 -12c-334 0 -470 130 -470 375s136 375 470 375c82 0 150 -5 283 -26v-144c-123 20 -199 26 -276 26c-220 0 -291 -78 -291 -231c0 -150 71 -231 291 -231c78 0 153 7 276 31v-144c-133 -25 -200 -31 -283 -31z" />
    <glyph glyph-name="uni0422" unicode="&#x422;" horiz-adv-x="842" 
d="M800 726v-141h-289v-585h-180v585h-289v141h758z" />
    <glyph glyph-name="uni0422" unicode="&#x442;" horiz-adv-x="842" 
d="M800 726v-141h-289v-585h-180v585h-289v141h758z" />
    <glyph glyph-name="uni0423" unicode="&#x423;" horiz-adv-x="902" 
d="M692 726h205l-426 -593c-62 -86 -102 -133 -213 -133h-155v141h121c54 0 86 16 113 59l19 31l-351 495h208l245 -345z" />
    <glyph glyph-name="uni0423" unicode="&#x443;" horiz-adv-x="902" 
d="M692 726h205l-426 -593c-62 -86 -102 -133 -213 -133h-155v141h121c54 0 86 16 113 59l19 31l-351 495h208l245 -345z" />
    <glyph glyph-name="uni040E" unicode="&#x40e;" horiz-adv-x="902" 
d="M438 816c-115 0 -195 61 -195 181h134c9 -65 36 -82 73 -82h6c40 0 67 27 73 82h133c-1 -121 -77 -181 -193 -181h-31zM692 726h205l-426 -593c-62 -86 -102 -133 -213 -133h-155v141h121c54 0 86 16 113 59l19 31l-351 495h208l245 -345z" />
    <glyph glyph-name="uni040E" unicode="&#x45e;" horiz-adv-x="902" 
d="M438 816c-115 0 -195 61 -195 181h134c9 -65 36 -82 73 -82h6c40 0 67 27 73 82h133c-1 -121 -77 -181 -193 -181h-31zM692 726h205l-426 -593c-62 -86 -102 -133 -213 -133h-155v141h121c54 0 86 16 113 59l19 31l-351 495h208l245 -345z" />
    <glyph glyph-name="uni0424" unicode="&#x424;" horiz-adv-x="1003" 
d="M947 357c0 -181 -113 -300 -364 -308v-89h-153v88c-259 6 -374 125 -374 309c0 188 120 312 374 321v88h153v-89c247 -11 364 -134 364 -320zM243 359c0 -99 64 -156 187 -164v336c-122 -9 -187 -71 -187 -172zM583 196c117 10 177 67 177 163c0 98 -61 159 -177 171
v-334z" />
    <glyph glyph-name="uni0424" unicode="&#x444;" horiz-adv-x="1003" 
d="M947 357c0 -181 -113 -300 -364 -308v-89h-153v88c-259 6 -374 125 -374 309c0 188 120 312 374 321v88h153v-89c247 -11 364 -134 364 -320zM243 359c0 -99 64 -156 187 -164v336c-122 -9 -187 -71 -187 -172zM583 196c117 10 177 67 177 163c0 98 -61 159 -177 171
v-334z" />
    <glyph glyph-name="uni0425" unicode="&#x425;" horiz-adv-x="898" 
d="M888 0h-223l-219 254l-229 -254h-201l331 369l-308 357h223l199 -231l207 231h201l-310 -345z" />
    <glyph glyph-name="uni0425" unicode="&#x445;" horiz-adv-x="898" 
d="M888 0h-223l-219 254l-229 -254h-201l331 369l-308 357h223l199 -231l207 231h201l-310 -345z" />
    <glyph glyph-name="uni0427" unicode="&#x427;" horiz-adv-x="888" 
d="M618 726h180v-726h-180v223h-303c-150 0 -240 35 -240 246v257h180v-249c0 -81 15 -113 97 -113h266v362z" />
    <glyph glyph-name="uni0427" unicode="&#x447;" horiz-adv-x="888" 
d="M618 726h180v-726h-180v223h-303c-150 0 -240 35 -240 246v257h180v-249c0 -81 15 -113 97 -113h266v362z" />
    <glyph glyph-name="uni0426" unicode="&#x426;" horiz-adv-x="993" 
d="M779 -183v183h-689v726h180v-585h397v585h180v-585h101v-324h-169z" />
    <glyph glyph-name="uni0426" unicode="&#x446;" horiz-adv-x="993" 
d="M779 -183v183h-689v726h180v-585h397v585h180v-585h101v-324h-169z" />
    <glyph glyph-name="uni0428" unicode="&#x428;" horiz-adv-x="1208" 
d="M90 0v726h180v-585h244v585h180v-585h244v585h180v-726h-1028z" />
    <glyph glyph-name="uni0428" unicode="&#x448;" horiz-adv-x="1208" 
d="M90 0v726h180v-585h244v585h180v-585h244v585h180v-726h-1028z" />
    <glyph glyph-name="uni0429" unicode="&#x429;" horiz-adv-x="1263" 
d="M1048 -183v183h-958v726h180v-585h244v585h180v-585h244v585h180v-585h100v-324h-170z" />
    <glyph glyph-name="uni0429" unicode="&#x449;" horiz-adv-x="1263" 
d="M1048 -183v183h-958v726h180v-585h244v585h180v-585h244v585h180v-585h100v-324h-170z" />
    <glyph glyph-name="uni040F" unicode="&#x40f;" horiz-adv-x="937" 
d="M386 -183v183h-296v726h180v-585h397v585h180v-726h-292v-183h-169z" />
    <glyph glyph-name="uni040F" unicode="&#x45f;" horiz-adv-x="937" 
d="M386 -183v183h-296v726h180v-585h397v585h180v-726h-292v-183h-169z" />
    <glyph glyph-name="uni042C" unicode="&#x42c;" horiz-adv-x="888" 
d="M565 520c178 0 277 -93 277 -260s-99 -260 -277 -260h-475v726h180v-206h295zM511 141c94 0 150 39 150 119s-56 119 -150 119h-241v-238h241z" />
    <glyph glyph-name="uni042C" unicode="&#x44c;" horiz-adv-x="888" 
d="M565 520c178 0 277 -93 277 -260s-99 -260 -277 -260h-475v726h180v-206h295zM511 141c94 0 150 39 150 119s-56 119 -150 119h-241v-238h241z" />
    <glyph glyph-name="uni042A" unicode="&#x42a;" horiz-adv-x="1060" 
d="M737 520c178 0 277 -93 277 -260s-99 -260 -277 -260h-475v585h-234v141h414v-206h295zM683 141c94 0 150 39 150 119s-56 119 -150 119h-241v-238h241z" />
    <glyph glyph-name="uni042A" unicode="&#x44a;" horiz-adv-x="1060" 
d="M737 520c178 0 277 -93 277 -260s-99 -260 -277 -260h-475v585h-234v141h414v-206h295zM683 141c94 0 150 39 150 119s-56 119 -150 119h-241v-238h241z" />
    <glyph glyph-name="uni042B" unicode="&#x42b;" horiz-adv-x="1244" 
d="M565 520c178 0 277 -93 277 -260s-99 -260 -277 -260h-475v726h180v-206h295zM974 726h180v-726h-180v726zM511 141c94 0 150 39 150 119s-56 119 -150 119h-241v-238h241z" />
    <glyph glyph-name="uni042B" unicode="&#x44b;" horiz-adv-x="1244" 
d="M565 520c178 0 277 -93 277 -260s-99 -260 -277 -260h-475v726h180v-206h295zM974 726h180v-726h-180v726zM511 141c94 0 150 39 150 119s-56 119 -150 119h-241v-238h241z" />
    <glyph glyph-name="uni0409" unicode="&#x409;" horiz-adv-x="1396" 
d="M1073 520c178 0 277 -93 277 -260s-99 -260 -277 -260h-455v585h-258l-25 -382c-9 -145 -48 -203 -180 -203h-120v141h55c58 0 73 23 78 114l25 471h605v-206h275zM1019 141c94 0 150 39 150 119s-56 119 -150 119h-221v-238h221z" />
    <glyph glyph-name="uni0409" unicode="&#x459;" horiz-adv-x="1396" 
d="M1073 520c178 0 277 -93 277 -260s-99 -260 -277 -260h-455v585h-258l-25 -382c-9 -145 -48 -203 -180 -203h-120v141h55c58 0 73 23 78 114l25 471h605v-206h275zM1019 141c94 0 150 39 150 119s-56 119 -150 119h-221v-238h221z" />
    <glyph glyph-name="uni040A" unicode="&#x40a;" horiz-adv-x="1423" 
d="M1100 520c178 0 277 -93 277 -260s-99 -260 -277 -260h-455v303h-375v-303h-180v726h180v-282h375v282h180v-206h275zM1046 141c94 0 150 39 150 119s-56 119 -150 119h-221v-238h221z" />
    <glyph glyph-name="uni040A" unicode="&#x45a;" horiz-adv-x="1423" 
d="M1100 520c178 0 277 -93 277 -260s-99 -260 -277 -260h-455v303h-375v-303h-180v726h180v-282h375v282h180v-206h275zM1046 141c94 0 150 39 150 119s-56 119 -150 119h-221v-238h221z" />
    <glyph glyph-name="uni0405" unicode="&#x405;" horiz-adv-x="860" 
d="M404 -12c-86 0 -225 8 -330 28v141c70 -16 219 -31 336 -31c100 0 216 7 216 80c0 45 -28 62 -76 67l-236 27c-144 16 -266 65 -266 219c0 179 167 219 396 219c89 0 200 -8 305 -28v-141c-79 18 -197 32 -303 32c-123 0 -219 -18 -219 -82c0 -37 32 -59 98 -67l241 -28
c183 -21 246 -102 246 -199c0 -202 -179 -237 -408 -237z" />
    <glyph glyph-name="uni0405" unicode="&#x455;" horiz-adv-x="860" 
d="M404 -12c-86 0 -225 8 -330 28v141c70 -16 219 -31 336 -31c100 0 216 7 216 80c0 45 -28 62 -76 67l-236 27c-144 16 -266 65 -266 219c0 179 167 219 396 219c89 0 200 -8 305 -28v-141c-79 18 -197 32 -303 32c-123 0 -219 -18 -219 -82c0 -37 32 -59 98 -67l241 -28
c183 -21 246 -102 246 -199c0 -202 -179 -237 -408 -237z" />
    <glyph glyph-name="uni0404" unicode="&#x404;" horiz-adv-x="879" 
d="M533 594c-182 0 -261 -53 -283 -158h418v-139h-419c20 -108 99 -165 284 -165c78 0 153 7 276 31v-144c-133 -25 -200 -31 -283 -31c-334 0 -470 130 -470 375s136 375 470 375c82 0 150 -5 283 -26v-144c-123 20 -199 26 -276 26z" />
    <glyph glyph-name="uni0404" unicode="&#x454;" horiz-adv-x="879" 
d="M533 594c-182 0 -261 -53 -283 -158h418v-139h-419c20 -108 99 -165 284 -165c78 0 153 7 276 31v-144c-133 -25 -200 -31 -283 -31c-334 0 -470 130 -470 375s136 375 470 375c82 0 150 -5 283 -26v-144c-123 20 -199 26 -276 26z" />
    <glyph glyph-name="uni042D" unicode="&#x42d;" horiz-adv-x="879" 
d="M353 738c334 0 470 -130 470 -375s-136 -375 -470 -375c-83 0 -150 6 -283 31v144c123 -24 198 -31 276 -31c185 0 264 57 284 165h-419v139h418c-22 105 -101 158 -283 158c-77 0 -153 -6 -276 -26v144c133 21 201 26 283 26z" />
    <glyph glyph-name="uni042D" unicode="&#x44d;" horiz-adv-x="879" 
d="M353 738c334 0 470 -130 470 -375s-136 -375 -470 -375c-83 0 -150 6 -283 31v144c123 -24 198 -31 276 -31c185 0 264 57 284 165h-419v139h418c-22 105 -101 158 -283 158c-77 0 -153 -6 -276 -26v144c133 21 201 26 283 26z" />
    <glyph glyph-name="uni0406" unicode="&#x406;" horiz-adv-x="360" 
d="M90 0v726h180v-726h-180z" />
    <glyph glyph-name="uni0406" unicode="&#x456;" horiz-adv-x="360" 
d="M90 0v726h180v-726h-180z" />
    <glyph glyph-name="uni0407" unicode="&#x407;" horiz-adv-x="360" 
d="M67 808c-54 0 -82 27 -82 79s28 79 81 79c55 0 84 -27 84 -79s-29 -79 -83 -79zM292 808c-54 0 -82 27 -82 79s28 79 81 79c54 0 83 -27 83 -79s-28 -79 -82 -79zM90 0v726h180v-726h-180z" />
    <glyph glyph-name="uni0407" unicode="&#x457;" horiz-adv-x="360" 
d="M67 808c-54 0 -82 27 -82 79s28 79 81 79c55 0 84 -27 84 -79s-29 -79 -83 -79zM292 808c-54 0 -82 27 -82 79s28 79 81 79c54 0 83 -27 83 -79s-28 -79 -82 -79zM90 0v726h180v-726h-180z" />
    <glyph glyph-name="uni0408" unicode="&#x408;" horiz-adv-x="694" 
d="M240 -12c-58 0 -130 9 -200 21v134c67 -10 133 -19 183 -19c173 0 206 44 206 164v438h180v-420c0 -227 -82 -318 -369 -318z" />
    <glyph glyph-name="uni0408" unicode="&#x458;" horiz-adv-x="694" 
d="M240 -12c-58 0 -130 9 -200 21v134c67 -10 133 -19 183 -19c173 0 206 44 206 164v438h180v-420c0 -227 -82 -318 -369 -318z" />
    <glyph glyph-name="uni040B" unicode="&#x40b;" horiz-adv-x="1062" 
d="M727 485c150 0 240 -35 240 -246v-239h-180v231c0 81 -15 113 -97 113h-267v-344h-180v585h-201v141h778v-141h-397v-100h304z" />
    <glyph glyph-name="uni040B" unicode="&#x45b;" horiz-adv-x="1062" 
d="M727 485c150 0 240 -35 240 -246v-239h-180v231c0 81 -15 113 -97 113h-267v-344h-180v585h-201v141h778v-141h-397v-100h304z" />
    <glyph glyph-name="uni042E" unicode="&#x42e;" horiz-adv-x="1302" 
d="M810 738c306 0 436 -149 436 -381c0 -225 -125 -369 -436 -369c-287 0 -414 123 -433 318h-107v-306h-180v726h180v-279h112c31 180 164 291 428 291zM810 144c173 0 249 76 249 215c0 141 -77 223 -249 223c-171 0 -248 -82 -248 -223c0 -139 76 -215 248 -215z" />
    <glyph glyph-name="uni042E" unicode="&#x44e;" horiz-adv-x="1302" 
d="M810 738c306 0 436 -149 436 -381c0 -225 -125 -369 -436 -369c-287 0 -414 123 -433 318h-107v-306h-180v726h180v-279h112c31 180 164 291 428 291zM810 144c173 0 249 76 249 215c0 141 -77 223 -249 223c-171 0 -248 -82 -248 -223c0 -139 76 -215 248 -215z" />
    <glyph glyph-name="uni042F" unicode="&#x42f;" horiz-adv-x="926" 
d="M356 726h480v-726h-180v206h-158c-84 0 -101 -22 -129 -56l-123 -150h-216l110 129c32 38 60 71 105 94c-90 31 -167 104 -167 243c0 167 99 260 278 260zM409 347h247v238h-247c-96 0 -150 -39 -150 -119s55 -119 150 -119z" />
    <glyph glyph-name="uni042F" unicode="&#x44f;" horiz-adv-x="926" 
d="M356 726h480v-726h-180v206h-158c-84 0 -101 -22 -129 -56l-123 -150h-216l110 129c32 38 60 71 105 94c-90 31 -167 104 -167 243c0 167 99 260 278 260zM409 347h247v238h-247c-96 0 -150 -39 -150 -119s55 -119 150 -119z" />
    <glyph glyph-name="uni0402" unicode="&#x402;" horiz-adv-x="1062" 
d="M707 485c160 0 260 -55 260 -266v-79c0 -190 -95 -253 -279 -253c-36 0 -76 3 -119 9v139c37 -5 69 -7 96 -7c88 0 122 29 122 120v63c0 81 -25 133 -117 133h-247v-344h-180v585h-201v141h778v-141h-397v-100h284z" />
    <glyph glyph-name="uni0402" unicode="&#x452;" horiz-adv-x="1062" 
d="M707 485c160 0 260 -55 260 -266v-79c0 -190 -95 -253 -279 -253c-36 0 -76 3 -119 9v139c37 -5 69 -7 96 -7c88 0 122 29 122 120v63c0 81 -25 133 -117 133h-247v-344h-180v585h-201v141h778v-141h-397v-100h284z" />
    <glyph glyph-name="uni0462" unicode="&#x462;" horiz-adv-x="949" 
d="M164 0v545h-129v131h129v100h180v-100h320v-131h-320v-104h273c127 0 286 -21 286 -218c0 -194 -181 -223 -312 -223h-427zM344 141h250c79 0 129 10 129 82s-47 82 -129 82h-250v-164z" />
    <glyph glyph-name="uni0462" unicode="&#x463;" horiz-adv-x="949" 
d="M164 0v545h-129v131h129v100h180v-100h320v-131h-320v-104h273c127 0 286 -21 286 -218c0 -194 -181 -223 -312 -223h-427zM344 141h250c79 0 129 10 129 82s-47 82 -129 82h-250v-164z" />
    <glyph glyph-name="uni0472" unicode="&#x472;" horiz-adv-x="1003" 
d="M501 738c316 0 446 -149 446 -381c0 -225 -125 -369 -446 -369s-445 145 -445 369c0 232 129 381 445 381zM501 582c-145 0 -223 -53 -249 -146h499c-26 93 -104 146 -250 146zM501 144c155 0 233 55 254 156h-507c21 -101 99 -156 253 -156z" />
    <glyph glyph-name="uni0472" unicode="&#x473;" horiz-adv-x="1003" 
d="M501 738c316 0 446 -149 446 -381c0 -225 -125 -369 -446 -369s-445 145 -445 369c0 232 129 381 445 381zM501 582c-145 0 -223 -53 -249 -146h499c-26 93 -104 146 -250 146zM501 144c155 0 233 55 254 156h-507c21 -101 99 -156 253 -156z" />
    <glyph glyph-name="uni0474" unicode="&#x474;" horiz-adv-x="884" 
d="M782 727h102v-142h-47c-30 0 -41 -8 -61 -50l-256 -535h-153l-355 726h199l239 -515l178 402c33 73 64 114 154 114z" />
    <glyph glyph-name="uni0474" unicode="&#x475;" horiz-adv-x="884" 
d="M782 727h102v-142h-47c-30 0 -41 -8 -61 -50l-256 -535h-153l-355 726h199l239 -515l178 402c33 73 64 114 154 114z" />
    <glyph glyph-name="uni0492" unicode="&#x492;" horiz-adv-x="835" 
d="M795 585h-473v-165h313v-135h-313v-285h-180v285h-122v135h122v306h653v-141z" />
    <glyph glyph-name="uni0492" unicode="&#x493;" horiz-adv-x="835" 
d="M795 585h-473v-165h313v-135h-313v-285h-180v285h-122v135h122v306h653v-141z" />
    <glyph glyph-name="uni049A" unicode="&#x49a;" horiz-adv-x="877" 
d="M742 141h130v-324h-168v183h-53l-240 306h-142v-306h-179v726h179v-279h103l238 279h203l-282 -320z" />
    <glyph glyph-name="uni049A" unicode="&#x49b;" horiz-adv-x="877" 
d="M742 141h130v-324h-168v183h-53l-240 306h-142v-306h-179v726h179v-279h103l238 279h203l-282 -320z" />
    <glyph glyph-name="uni04A2" unicode="&#x4a2;" horiz-adv-x="959" 
d="M869 141h154v-324h-168v183h-166v306h-419v-306h-180v726h180v-279h419v279h180v-585z" />
    <glyph glyph-name="uni04A2" unicode="&#x4a3;" horiz-adv-x="959" 
d="M869 141h154v-324h-168v183h-166v306h-419v-306h-180v726h180v-279h419v279h180v-585z" />
    <glyph glyph-name="uni04AE" unicode="&#x4ae;" horiz-adv-x="854" 
d="M854 726l-340 -445v-281h-180v284l-334 442h214l211 -286l215 286h214z" />
    <glyph glyph-name="uni04AE" unicode="&#x4af;" horiz-adv-x="854" 
d="M854 726l-340 -445v-281h-180v284l-334 442h214l211 -286l215 286h214z" />
    <glyph glyph-name="uni04B0" unicode="&#x4b0;" horiz-adv-x="854" 
d="M854 726l-260 -366h109v-135h-189v-225h-180v225h-196v135h119l-257 366h214l211 -316l215 316h214z" />
    <glyph glyph-name="uni04B0" unicode="&#x4b1;" horiz-adv-x="854" 
d="M854 726l-260 -366h109v-135h-189v-225h-180v225h-196v135h119l-257 366h214l211 -316l215 316h214z" />
    <glyph glyph-name="uni04BA" unicode="&#x4ba;" horiz-adv-x="920" 
d="M585 465c150 0 240 -35 240 -246v-219h-180v211c0 81 -15 113 -97 113h-278v-324h-180v726h180v-261h315z" />
    <glyph glyph-name="uni04BA" unicode="&#x4bb;" horiz-adv-x="920" 
d="M585 465c150 0 240 -35 240 -246v-219h-180v211c0 81 -15 113 -97 113h-278v-324h-180v726h180v-261h315z" />
    <glyph glyph-name="uni04D8" unicode="&#x4d8;" horiz-adv-x="937" 
d="M475 -12c-241 0 -419 63 -419 459h624c-18 127 -106 150 -257 150c-109 0 -235 -14 -322 -38v141c106 24 226 37 338 37c292 0 442 -97 442 -365c0 -275 -175 -384 -406 -384zM469 141c128 0 217 24 218 172h-414c0 -131 58 -172 196 -172z" />
    <glyph glyph-name="uni04D8" unicode="&#x4d9;" horiz-adv-x="937" 
d="M475 -12c-241 0 -419 63 -419 459h624c-18 127 -106 150 -257 150c-109 0 -235 -14 -322 -38v141c106 24 226 37 338 37c292 0 442 -97 442 -365c0 -275 -175 -384 -406 -384zM469 141c128 0 217 24 218 172h-414c0 -131 58 -172 196 -172z" />
    <glyph glyph-name="uni04E8" unicode="&#x4e8;" horiz-adv-x="1003" 
d="M501 738c316 0 446 -149 446 -381c0 -225 -125 -369 -446 -369s-445 145 -445 369c0 232 129 381 445 381zM501 582c-145 0 -223 -53 -249 -146h499c-26 93 -104 146 -250 146zM501 144c155 0 233 55 254 156h-507c21 -101 99 -156 253 -156z" />
    <glyph glyph-name="uni04E8" unicode="&#x4e9;" horiz-adv-x="1003" 
d="M501 738c316 0 446 -149 446 -381c0 -225 -125 -369 -446 -369s-445 145 -445 369c0 232 129 381 445 381zM501 582c-145 0 -223 -53 -249 -146h499c-26 93 -104 146 -250 146zM501 144c155 0 233 55 254 156h-507c21 -101 99 -156 253 -156z" />
    <glyph glyph-name="Alpha" unicode="&#x391;" horiz-adv-x="901" 
d="M695 0l-65 133h-367l-63 -133h-188l366 726h143l368 -726h-194zM330 275h232l-118 242z" />
    <glyph glyph-name="Alpha" unicode="&#x3b1;" horiz-adv-x="901" 
d="M695 0l-65 133h-367l-63 -133h-188l366 726h143l368 -726h-194zM330 275h232l-118 242z" />
    <glyph glyph-name="Beta" unicode="&#x392;" horiz-adv-x="890" 
d="M716 386c74 -28 114 -89 114 -176c0 -135 -103 -210 -288 -210h-452v726h496c139 0 217 -65 217 -182c0 -65 -31 -120 -87 -158zM628 511c0 48 -35 74 -97 74h-261v-149h261c62 0 97 27 97 75zM546 141c67 0 105 30 105 83s-38 82 -105 82h-276v-165h276z" />
    <glyph glyph-name="Beta" unicode="&#x3b2;" horiz-adv-x="890" 
d="M716 386c74 -28 114 -89 114 -176c0 -135 -103 -210 -288 -210h-452v726h496c139 0 217 -65 217 -182c0 -65 -31 -120 -87 -158zM628 511c0 48 -35 74 -97 74h-261v-149h261c62 0 97 27 97 75zM546 141c67 0 105 30 105 83s-38 82 -105 82h-276v-165h276z" />
    <glyph glyph-name="Gamma" unicode="&#x393;" horiz-adv-x="741" 
d="M699 726v-141h-429v-585h-180v726h609z" />
    <glyph glyph-name="Gamma" unicode="&#x3b3;" horiz-adv-x="741" 
d="M699 726v-141h-429v-585h-180v726h609z" />
    <glyph glyph-name="uni0394" unicode="&#x394;" horiz-adv-x="894" 
d="M515 726l316 -606v-120h-768v120l317 606h135zM441 522l-182 -379h372z" />
    <glyph glyph-name="uni0394" unicode="&#x3b4;" horiz-adv-x="894" 
d="M515 726l316 -606v-120h-768v120l317 606h135zM441 522l-182 -379h372z" />
    <glyph glyph-name="Epsilon" unicode="&#x395;" horiz-adv-x="816" 
d="M270 141h476v-141h-656v726h655v-141h-475v-154h386v-136h-386v-154z" />
    <glyph glyph-name="Epsilon" unicode="&#x3b5;" horiz-adv-x="816" 
d="M270 141h476v-141h-656v726h655v-141h-475v-154h386v-136h-386v-154z" />
    <glyph glyph-name="Zeta" unicode="&#x396;" horiz-adv-x="845" 
d="M299 141h481v-141h-715v128l461 457h-459v141h704v-128z" />
    <glyph glyph-name="Zeta" unicode="&#x3b6;" horiz-adv-x="845" 
d="M299 141h481v-141h-715v128l461 457h-459v141h704v-128z" />
    <glyph glyph-name="Eta" unicode="&#x397;" horiz-adv-x="959" 
d="M689 726h180v-726h-180v306h-419v-306h-180v726h180v-279h419v279z" />
    <glyph glyph-name="Eta" unicode="&#x3b7;" horiz-adv-x="959" 
d="M689 726h180v-726h-180v306h-419v-306h-180v726h180v-279h419v279z" />
    <glyph glyph-name="Theta" unicode="&#x398;" horiz-adv-x="1003" 
d="M501 -12c-321 0 -445 145 -445 369c0 232 129 381 445 381s446 -149 446 -381c0 -225 -125 -369 -446 -369zM501 144c183 0 259 76 259 215c0 141 -77 223 -259 223c-181 0 -258 -82 -258 -223c0 -139 76 -215 258 -215zM308 297v136h406v-136h-406z" />
    <glyph glyph-name="Theta" unicode="&#x3b8;" horiz-adv-x="1003" 
d="M501 -12c-321 0 -445 145 -445 369c0 232 129 381 445 381s446 -149 446 -381c0 -225 -125 -369 -446 -369zM501 144c183 0 259 76 259 215c0 141 -77 223 -259 223c-181 0 -258 -82 -258 -223c0 -139 76 -215 258 -215zM308 297v136h406v-136h-406z" />
    <glyph glyph-name="Iota" unicode="&#x399;" horiz-adv-x="360" 
d="M90 0v726h180v-726h-180z" />
    <glyph glyph-name="Iota" unicode="&#x3b9;" horiz-adv-x="360" 
d="M90 0v726h180v-726h-180z" />
    <glyph glyph-name="Kappa" unicode="&#x39a;" horiz-adv-x="875" 
d="M645 0l-271 327l-105 -90v-237h-179v726h179v-307l346 307h226l-344 -294l355 -432h-207z" />
    <glyph glyph-name="Kappa" unicode="&#x3ba;" horiz-adv-x="875" 
d="M645 0l-271 327l-105 -90v-237h-179v726h179v-307l346 307h226l-344 -294l355 -432h-207z" />
    <glyph glyph-name="Lambda" unicode="&#x39b;" horiz-adv-x="887" 
d="M875 1h-199l-238 514l-225 -514h-201l355 726h153z" />
    <glyph glyph-name="Lambda" unicode="&#x3bb;" horiz-adv-x="887" 
d="M875 1h-199l-238 514l-225 -514h-201l355 726h153z" />
    <glyph glyph-name="Mu" unicode="&#x39c;" horiz-adv-x="1119" 
d="M863 726h166v-726h-173v424l-226 -424h-130l-237 425v-425h-173v726h176l301 -531z" />
    <glyph glyph-name="Mu" unicode="&#x3bc;" horiz-adv-x="1119" 
d="M863 726h166v-726h-173v424l-226 -424h-130l-237 425v-425h-173v726h176l301 -531z" />
    <glyph glyph-name="Nu" unicode="&#x39d;" horiz-adv-x="986" 
d="M720 726h176v-726h-161l-470 486v-486h-175v726h175l455 -470v470z" />
    <glyph glyph-name="Nu" unicode="&#x3bd;" horiz-adv-x="986" 
d="M720 726h176v-726h-161l-470 486v-486h-175v726h175l455 -470v470z" />
    <glyph glyph-name="Xi" unicode="&#x39e;" horiz-adv-x="890" 
d="M112 585v141h666v-141h-666zM209 301v136h482v-136h-482zM95 0v141h700v-141h-700z" />
    <glyph glyph-name="Xi" unicode="&#x3be;" horiz-adv-x="890" 
d="M112 585v141h666v-141h-666zM209 301v136h482v-136h-482zM95 0v141h700v-141h-700z" />
    <glyph glyph-name="Omicron" unicode="&#x39f;" horiz-adv-x="1003" 
d="M501 -12c-321 0 -445 145 -445 369c0 232 129 381 445 381s446 -149 446 -381c0 -225 -125 -369 -446 -369zM501 144c183 0 259 76 259 215c0 141 -77 223 -259 223c-181 0 -258 -82 -258 -223c0 -139 76 -215 258 -215z" />
    <glyph glyph-name="Omicron" unicode="&#x3bf;" horiz-adv-x="1003" 
d="M501 -12c-321 0 -445 145 -445 369c0 232 129 381 445 381s446 -149 446 -381c0 -225 -125 -369 -446 -369zM501 144c183 0 259 76 259 215c0 141 -77 223 -259 223c-181 0 -258 -82 -258 -223c0 -139 76 -215 258 -215z" />
    <glyph glyph-name="Pi" unicode="&#x3a0;" horiz-adv-x="922" 
d="M90 0v726h742v-726h-180v585h-382v-585h-180z" />
    <glyph glyph-name="Pi" unicode="&#x3c0;" horiz-adv-x="922" 
d="M90 0v726h742v-726h-180v585h-382v-585h-180z" />
    <glyph glyph-name="Rho" unicode="&#x3a1;" horiz-adv-x="888" 
d="M565 726c178 0 277 -93 277 -260s-99 -260 -277 -260h-295v-206h-180v726h475zM511 347c94 0 150 39 150 119s-56 119 -150 119h-241v-238h241z" />
    <glyph glyph-name="Rho" unicode="&#x3c1;" horiz-adv-x="888" 
d="M565 726c178 0 277 -93 277 -260s-99 -260 -277 -260h-295v-206h-180v726h475zM511 347c94 0 150 39 150 119s-56 119 -150 119h-241v-238h241z" />
    <glyph glyph-name="Sigma" unicode="&#x3a3;" horiz-adv-x="826" 
d="M321 151h430v-151h-671v150l315 211l-315 220v145h669v-139h-408l237 -170v-101z" />
    <glyph glyph-name="Tau" unicode="&#x3a4;" horiz-adv-x="842" 
d="M800 726v-141h-289v-585h-180v585h-289v141h758z" />
    <glyph glyph-name="Tau" unicode="&#x3c4;" horiz-adv-x="842" 
d="M800 726v-141h-289v-585h-180v585h-289v141h758z" />
    <glyph glyph-name="Upsilon" unicode="&#x3a5;" horiz-adv-x="854" 
d="M854 726l-340 -445v-281h-180v284l-334 442h214l211 -286l215 286h214z" />
    <glyph glyph-name="Upsilon" unicode="&#x3c5;" horiz-adv-x="854" 
d="M854 726l-340 -445v-281h-180v284l-334 442h214l211 -286l215 286h214z" />
    <glyph glyph-name="Phi" unicode="&#x3a6;" horiz-adv-x="1003" 
d="M947 357c0 -203 -102 -341 -359 -365v-112h-155v110c-271 20 -377 160 -377 367c0 215 110 358 377 379v110h155v-112c253 -26 359 -168 359 -377zM243 359c0 -120 57 -193 190 -211v430c-132 -19 -190 -97 -190 -219zM588 151c120 22 172 94 172 208
c0 116 -52 192 -172 215v-423z" />
    <glyph glyph-name="Phi" unicode="&#x3c6;" horiz-adv-x="1003" 
d="M947 357c0 -203 -102 -341 -359 -365v-112h-155v110c-271 20 -377 160 -377 367c0 215 110 358 377 379v110h155v-112c253 -26 359 -168 359 -377zM243 359c0 -120 57 -193 190 -211v430c-132 -19 -190 -97 -190 -219zM588 151c120 22 172 94 172 208
c0 116 -52 192 -172 215v-423z" />
    <glyph glyph-name="Chi" unicode="&#x3a7;" horiz-adv-x="898" 
d="M888 0h-223l-219 254l-229 -254h-201l331 369l-308 357h223l199 -231l207 231h201l-310 -345z" />
    <glyph glyph-name="Chi" unicode="&#x3c7;" horiz-adv-x="898" 
d="M888 0h-223l-219 254l-229 -254h-201l331 369l-308 357h223l199 -231l207 231h201l-310 -345z" />
    <glyph glyph-name="Psi" unicode="&#x3a8;" horiz-adv-x="953" 
d="M731 726h167v-239c0 -222 -104 -294 -337 -298v-189h-166v189c-238 4 -340 79 -340 298v239h170v-219c0 -131 52 -164 170 -168v387h166v-387c116 3 170 34 170 168v219z" />
    <glyph glyph-name="Psi" unicode="&#x3c8;" horiz-adv-x="953" 
d="M731 726h167v-239c0 -222 -104 -294 -337 -298v-189h-166v189c-238 4 -340 79 -340 298v239h170v-219c0 -131 52 -164 170 -168v387h166v-387c116 3 170 34 170 168v219z" />
    <glyph glyph-name="uni03A9" unicode="&#x3a9;" horiz-adv-x="968" 
d="M65 0v143h115c-83 64 -110 148 -110 279c0 219 187 316 414 316s414 -97 414 -316c0 -130 -27 -215 -111 -279h116v-143h-335v128c69 52 138 149 138 255c0 175 -101 200 -222 200c-117 0 -223 -25 -223 -200c0 -107 70 -203 139 -255v-128h-335z" />
    <glyph glyph-name="uni03A9" unicode="&#x3c9;" horiz-adv-x="968" 
d="M65 0v143h115c-83 64 -110 148 -110 279c0 219 187 316 414 316s414 -97 414 -316c0 -130 -27 -215 -111 -279h116v-143h-335v128c69 52 138 149 138 255c0 175 -101 200 -222 200c-117 0 -223 -25 -223 -200c0 -107 70 -203 139 -255v-128h-335z" />
    <glyph glyph-name="Alphatonos" unicode="&#x386;" horiz-adv-x="935" 
d="M304 726l-140 -215h-164l93 215h211zM729 0l-65 133h-367l-63 -133h-188l366 726h143l368 -726h-194zM364 275h232l-118 242z" />
    <glyph glyph-name="Alphatonos" unicode="&#x3ac;" horiz-adv-x="935" 
d="M304 726l-140 -215h-164l93 215h211zM729 0l-65 133h-367l-63 -133h-188l366 726h143l368 -726h-194zM364 275h232l-118 242z" />
    <glyph glyph-name="Epsilontonos" unicode="&#x388;" horiz-adv-x="1052" 
d="M0 511l93 215h211l-140 -215h-164zM506 141h476v-141h-656v726h655v-141h-475v-154h386v-136h-386v-154z" />
    <glyph glyph-name="Epsilontonos" unicode="&#x3ad;" horiz-adv-x="1052" 
d="M0 511l93 215h211l-140 -215h-164zM506 141h476v-141h-656v726h655v-141h-475v-154h386v-136h-386v-154z" />
    <glyph glyph-name="Etatonos" unicode="&#x389;" horiz-adv-x="1195" 
d="M0 511l93 215h211l-140 -215h-164zM925 726h180v-726h-180v306h-419v-306h-180v726h180v-279h419v279z" />
    <glyph glyph-name="Etatonos" unicode="&#x3ae;" horiz-adv-x="1195" 
d="M0 511l93 215h211l-140 -215h-164zM925 726h180v-726h-180v306h-419v-306h-180v726h180v-279h419v279z" />
    <glyph glyph-name="Iotatonos" unicode="&#x38a;" horiz-adv-x="616" 
d="M0 511l93 215h211l-140 -215h-164zM346 0v726h180v-726h-180z" />
    <glyph glyph-name="Iotatonos" unicode="&#x3af;" horiz-adv-x="616" 
d="M0 511l93 215h211l-140 -215h-164zM346 0v726h180v-726h-180z" />
    <glyph glyph-name="Omicrontonos" unicode="&#x38c;" horiz-adv-x="1178" 
d="M676 -12c-321 0 -445 145 -445 369c0 232 129 381 445 381s446 -149 446 -381c0 -225 -125 -369 -446 -369zM0 511l93 215h211l-140 -215h-164zM676 144c183 0 259 76 259 215c0 141 -77 223 -259 223c-181 0 -258 -82 -258 -223c0 -139 76 -215 258 -215z" />
    <glyph glyph-name="Omicrontonos" unicode="&#x3cc;" horiz-adv-x="1178" 
d="M676 -12c-321 0 -445 145 -445 369c0 232 129 381 445 381s446 -149 446 -381c0 -225 -125 -369 -446 -369zM0 511l93 215h211l-140 -215h-164zM676 144c183 0 259 76 259 215c0 141 -77 223 -259 223c-181 0 -258 -82 -258 -223c0 -139 76 -215 258 -215z" />
    <glyph glyph-name="Upsilontonos" unicode="&#x38e;" horiz-adv-x="1184" 
d="M0 511l93 215h211l-140 -215h-164zM1184 726l-340 -445v-281h-180v284l-334 442h214l211 -286l215 286h214z" />
    <glyph glyph-name="Upsilontonos" unicode="&#x3cd;" horiz-adv-x="1184" 
d="M0 511l93 215h211l-140 -215h-164zM1184 726l-340 -445v-281h-180v284l-334 442h214l211 -286l215 286h214z" />
    <glyph glyph-name="Omegatonos" unicode="&#x38f;" horiz-adv-x="1178" 
d="M275 0v143h115c-83 64 -110 148 -110 279c0 219 187 316 414 316s414 -97 414 -316c0 -130 -27 -215 -111 -279h116v-143h-335v128c69 52 138 149 138 255c0 175 -101 200 -222 200c-117 0 -223 -25 -223 -200c0 -107 70 -203 139 -255v-128h-335zM20 511l93 215h211
l-140 -215h-164z" />
    <glyph glyph-name="Omegatonos" unicode="&#x3ce;" horiz-adv-x="1178" 
d="M275 0v143h115c-83 64 -110 148 -110 279c0 219 187 316 414 316s414 -97 414 -316c0 -130 -27 -215 -111 -279h116v-143h-335v128c69 52 138 149 138 255c0 175 -101 200 -222 200c-117 0 -223 -25 -223 -200c0 -107 70 -203 139 -255v-128h-335zM20 511l93 215h211
l-140 -215h-164z" />
    <glyph glyph-name="Iotadieresis" unicode="&#x3aa;" horiz-adv-x="360" 
d="M67 808c-54 0 -82 27 -82 79s28 79 81 79c55 0 84 -27 84 -79s-29 -79 -83 -79zM292 808c-54 0 -82 27 -82 79s28 79 81 79c54 0 83 -27 83 -79s-28 -79 -82 -79zM90 0v726h180v-726h-180z" />
    <glyph glyph-name="Iotadieresis" unicode="&#x3ca;" horiz-adv-x="360" 
d="M67 808c-54 0 -82 27 -82 79s28 79 81 79c55 0 84 -27 84 -79s-29 -79 -83 -79zM292 808c-54 0 -82 27 -82 79s28 79 81 79c54 0 83 -27 83 -79s-28 -79 -82 -79zM90 0v726h180v-726h-180z" />
    <glyph glyph-name="Upsilondieresis" unicode="&#x3ab;" horiz-adv-x="854" 
d="M319 808c-54 0 -82 27 -82 79s28 79 81 79c55 0 84 -27 84 -79s-29 -79 -83 -79zM544 808c-54 0 -82 27 -82 79s28 79 81 79c54 0 83 -27 83 -79s-28 -79 -82 -79zM854 726l-340 -445v-281h-180v284l-334 442h214l211 -286l215 286h214z" />
    <glyph glyph-name="Upsilondieresis" unicode="&#x3cb;" horiz-adv-x="854" 
d="M319 808c-54 0 -82 27 -82 79s28 79 81 79c55 0 84 -27 84 -79s-29 -79 -83 -79zM544 808c-54 0 -82 27 -82 79s28 79 81 79c54 0 83 -27 83 -79s-28 -79 -82 -79zM854 726l-340 -445v-281h-180v284l-334 442h214l211 -286l215 286h214z" />
    <glyph glyph-name="uni03C2" unicode="&#x3c2;" horiz-adv-x="826" 
d="M321 151h430v-151h-671v150l315 211l-315 220v145h669v-139h-408l237 -170v-101z" />
    <glyph glyph-name="sigma" unicode="&#x3c3;" horiz-adv-x="826" 
d="M321 151h430v-151h-671v150l315 211l-315 220v145h669v-139h-408l237 -170v-101z" />
    <glyph glyph-name="zero" unicode="0" horiz-adv-x="963" 
d="M481 -12c-301 0 -425 145 -425 369c0 232 129 381 425 381s426 -149 426 -381c0 -225 -125 -369 -426 -369zM481 144c163 0 239 76 239 215c0 141 -77 223 -239 223c-161 0 -238 -82 -238 -223c0 -139 76 -215 238 -215z" />
    <glyph glyph-name="one" unicode="1" horiz-adv-x="442" 
d="M172 0v585h-117v141h297v-726h-180z" />
    <glyph glyph-name="two" unicode="2" horiz-adv-x="772" 
d="M310 144h400v-144h-655v131l337 254c99 75 136 116 136 145c0 62 -87 71 -199 71c-92 0 -194 -14 -263 -32v141c91 20 188 28 265 28c217 0 376 -41 376 -200c0 -89 -64 -142 -228 -266z" />
    <glyph glyph-name="three" unicode="3" horiz-adv-x="858" 
d="M532 435c131 11 261 -40 261 -204c0 -208 -180 -243 -409 -243c-86 0 -219 8 -324 28v141c70 -16 213 -31 330 -31c100 0 224 13 224 106c0 63 -40 78 -105 78h-230v98l244 176h-438v142h673v-128z" />
    <glyph glyph-name="four" unicode="4" horiz-adv-x="896" 
d="M851 310v-140h-124v-170h-180v170h-482v132l322 424h211l-323 -416h272v165h180v-165h124z" />
    <glyph glyph-name="five" unicode="5" horiz-adv-x="859" 
d="M385 -12c-86 0 -199 8 -304 28v141c70 -16 193 -31 310 -31c100 0 224 13 224 106c0 63 -39 78 -105 78h-408v416h648v-142h-468v-136h238c157 0 274 -44 274 -217c0 -208 -180 -243 -409 -243z" />
    <glyph glyph-name="six" unicode="6" horiz-adv-x="880" 
d="M470 460c192 0 354 -49 354 -224c0 -179 -171 -248 -378 -248c-253 0 -390 103 -390 358c0 275 157 392 435 392c95 0 192 -14 261 -35v-142c-68 19 -165 34 -254 34c-167 0 -238 -46 -254 -176c64 29 141 41 226 41zM438 134c108 0 205 17 205 97c0 83 -104 91 -191 91
c-119 0 -202 -15 -202 -91c0 -69 77 -97 188 -97z" />
    <glyph glyph-name="seven" unicode="7" horiz-adv-x="700" 
d="M25 726h640v-141l-294 -585h-191l294 585h-449v141z" />
    <glyph glyph-name="eight" unicode="8" horiz-adv-x="924" 
d="M771 394c54 -38 90 -101 90 -171c0 -200 -202 -235 -389 -235c-211 0 -404 48 -404 223c0 71 29 123 94 160c-41 32 -67 80 -67 139c0 147 119 228 371 228c199 0 369 -47 369 -208c0 -55 -23 -101 -64 -136zM469 601c-145 0 -193 -27 -193 -82c0 -54 47 -65 99 -67
l244 -14c23 20 34 46 34 75c0 74 -83 88 -184 88zM469 125c122 0 205 19 205 95c0 59 -43 78 -99 82l-273 18c-32 -22 -48 -51 -48 -90c0 -78 114 -105 215 -105z" />
    <glyph glyph-name="nine" unicode="9" horiz-adv-x="880" 
d="M434 738c253 0 390 -103 390 -358c0 -275 -157 -392 -435 -392c-95 0 -192 14 -261 35v142c68 -19 165 -34 254 -34c167 0 238 46 254 176c-64 -29 -141 -41 -226 -41c-192 0 -354 49 -354 224c0 179 171 248 378 248zM428 404c119 0 202 15 202 91c0 69 -77 97 -188 97
c-108 0 -205 -17 -205 -97c0 -83 104 -91 191 -91z" />
    <glyph glyph-name="uni00B9" unicode="&#xb9;" horiz-adv-x="289" 
d="M112 370v263h-67v100h189v-363h-122z" />
    <glyph glyph-name="uni00B2" unicode="&#xb2;" horiz-adv-x="427" 
d="M225 464h147v-94h-317v86l129 96c52 39 61 49 61 64c0 21 -19 28 -46 28c-60 0 -107 -8 -140 -17v94c34 9 81 17 142 17c97 0 169 -24 169 -105c0 -54 -29 -88 -86 -128z" />
    <glyph glyph-name="uni00B3" unicode="&#xb3;" horiz-adv-x="461" 
d="M321 588c67 -5 85 -54 85 -101c0 -93 -77 -123 -181 -123c-56 0 -117 9 -170 20v92c48 -15 103 -24 147 -24c43 0 78 9 78 40c0 21 -16 27 -27 27h-71v52l56 74h-178v88h336v-78z" />
    <glyph glyph-name="uni2074" unicode="&#x2074;" horiz-adv-x="451" 
d="M249 363v69h-224v79l155 215h113l-152 -208h108v83h110v-83h61v-86h-61v-69h-110z" />
    <glyph glyph-name="fraction" unicode="&#x2044;" 
d="M-347 -12l521 751h123l-521 -751h-123z" />
    <glyph glyph-name="onehalf" unicode="&#xbd;" horiz-adv-x="918" 
d="M602 739h123l-521 -751h-123zM123 370v263h-67v100h189v-363h-122zM709 94h147v-94h-317v86l129 96c52 39 61 49 61 64c0 21 -19 28 -46 28c-60 0 -107 -8 -140 -17v94c34 9 81 17 142 17c97 0 169 -24 169 -105c0 -54 -29 -88 -86 -128z" />
    <glyph glyph-name="onequarter" unicode="&#xbc;" horiz-adv-x="918" 
d="M105 -12l521 751h123l-521 -751h-123zM123 370v263h-67v100h189v-363h-122zM707 0v69h-224v79l155 215h113l-152 -208h108v83h110v-83h61v-86h-61v-69h-110z" />
    <glyph glyph-name="threequarters" unicode="&#xbe;" horiz-adv-x="918" 
d="M670 739h123l-521 -751h-123zM381 487c0 -93 -77 -123 -181 -123c-56 0 -117 9 -170 20v92c48 -15 103 -24 147 -24c43 0 78 9 78 40c0 21 -16 27 -27 27h-71v52l56 74h-178v88h336v-78l-75 -67c67 -5 85 -54 85 -101zM837 155h61v-86h-61v-69h-110v69h-224v79l155 215
h113l-152 -208h108v83h110v-83z" />
    <glyph glyph-name="period" unicode="." horiz-adv-x="308" 
d="M154 -12c-67 0 -99 28 -99 86c0 57 32 85 98 85c67 0 100 -28 100 -85c0 -58 -32 -86 -99 -86z" />
    <glyph glyph-name="comma" unicode="," horiz-adv-x="307" 
d="M152 159c67 0 100 -28 100 -87c0 -31 -8 -57 -26 -93l-90 -177h-101l68 193c-33 12 -49 38 -49 79c0 57 32 85 98 85z" />
    <glyph glyph-name="colon" unicode=":" horiz-adv-x="313" 
d="M154 282c-67 0 -99 28 -99 86c0 57 32 85 98 85c67 0 100 -28 100 -85c0 -58 -32 -86 -99 -86zM159 -12c-67 0 -99 28 -99 86c0 57 32 85 98 85c67 0 100 -28 100 -85c0 -58 -32 -86 -99 -86z" />
    <glyph glyph-name="semicolon" unicode=";" horiz-adv-x="317" 
d="M163 282c-67 0 -99 28 -99 86c0 57 32 85 98 85c67 0 100 -28 100 -85c0 -58 -32 -86 -99 -86zM152 159c67 0 100 -28 100 -87c0 -31 -8 -57 -26 -93l-90 -177h-101l68 193c-33 12 -49 38 -49 79c0 57 32 85 98 85z" />
    <glyph glyph-name="ellipsis" unicode="&#x2026;" horiz-adv-x="907" 
d="M154 -12c-67 0 -99 28 -99 86c0 57 32 85 98 85c67 0 100 -28 100 -85c0 -58 -32 -86 -99 -86zM453 -12c-67 0 -99 28 -99 86c0 57 32 85 98 85c67 0 100 -28 100 -85c0 -58 -32 -86 -99 -86zM753 -12c-67 0 -99 28 -99 86c0 57 32 85 98 85c67 0 100 -28 100 -85
c0 -58 -32 -86 -99 -86z" />
    <glyph glyph-name="exclam" unicode="!" horiz-adv-x="414" 
d="M136 246l-23 480h189l-20 -480h-146zM207 -12c-67 0 -99 28 -99 86c0 57 32 85 98 85c67 0 100 -28 100 -85c0 -58 -32 -86 -99 -86z" />
    <glyph glyph-name="exclamdown" unicode="&#xa1;" horiz-adv-x="414" 
d="M207 738c67 0 99 -28 99 -86c0 -57 -32 -85 -98 -85c-67 0 -100 28 -100 85c0 58 32 86 99 86zM278 480l23 -480h-189l20 480h146z" />
    <glyph glyph-name="question" unicode="?" horiz-adv-x="726" 
d="M218 218v109c0 58 45 110 112 124l116 24c43 9 53 29 53 50c0 71 -93 72 -220 72c-90 0 -190 -10 -254 -24v140c90 16 197 25 293 25c203 0 363 -47 363 -206c0 -124 -49 -160 -142 -179l-130 -27c-24 -5 -33 -18 -33 -55v-53h-158zM296 -12c-67 0 -99 28 -99 86
c0 57 32 85 98 85c67 0 100 -28 100 -85c0 -58 -32 -86 -99 -86z" />
    <glyph glyph-name="questiondown" unicode="&#xbf;" horiz-adv-x="726" 
d="M430 738c67 0 99 -28 99 -86c0 -57 -32 -85 -98 -85c-67 0 -100 28 -100 85c0 58 32 86 99 86zM508 508v-109c0 -58 -45 -110 -112 -124l-116 -24c-43 -9 -53 -29 -53 -50c0 -71 93 -72 220 -72c90 0 190 10 254 24v-140c-90 -16 -197 -25 -293 -25
c-203 0 -363 47 -363 206c0 124 49 160 142 179l130 27c24 5 33 18 33 55v53h158z" />
    <glyph glyph-name="periodcentered" unicode="&#xb7;" horiz-adv-x="258" 
d="M129 277c-67 0 -99 28 -99 86c0 57 32 85 98 85c67 0 100 -28 100 -85c0 -58 -32 -86 -99 -86z" />
    <glyph glyph-name="bullet" unicode="&#x2022;" horiz-adv-x="480" 
d="M240 185c-122 0 -200 69 -200 177c0 109 78 178 200 178s200 -69 200 -178c0 -108 -78 -177 -200 -177z" />
    <glyph glyph-name="asterisk" unicode="*" horiz-adv-x="504" 
d="M479 539l-83 -118l-87 92l25 -125h-163l25 125l-88 -92l-83 118l114 44l-113 47l80 111l88 -84l-23 125h163l-25 -125l90 84l78 -111l-111 -47z" />
    <glyph glyph-name="numbersign" unicode="#" horiz-adv-x="947" 
d="M157 0l30 173h-142l37 113h142l37 161h-148l37 113h144l32 166h150l-32 -166h143l33 166h149l-32 -166h165l-36 -113h-162l-38 -161h168l-37 -113h-166l-31 -173h-150l30 173h-142l-32 -173h-149zM364 278h158l41 177h-157z" />
    <glyph glyph-name="slash" unicode="/" horiz-adv-x="548" 
d="M5 -40l381 792h157l-381 -792h-157z" />
    <glyph glyph-name="backslash" unicode="\" horiz-adv-x="548" 
d="M543 -40h-157l-381 792h157z" />
    <glyph glyph-name="parenleft" unicode="(" horiz-adv-x="459" 
d="M252 -174c-101 0 -162 28 -162 236v620c0 125 8 236 160 236h204v-128h-135c-37 0 -59 -12 -59 -80v-676c0 -49 8 -80 59 -80h135v-128h-202z" />
    <glyph glyph-name="parenright" unicode=")" horiz-adv-x="459" 
d="M5 -174v128h135c37 0 59 13 59 80v676c0 47 -7 80 -59 80h-135v128h204c100 0 160 -30 160 -236v-620c0 -126 -8 -236 -162 -236h-202z" />
    <glyph glyph-name="braceleft" unicode="{" horiz-adv-x="465" 
d="M273 -174c-86 0 -177 28 -177 237v172c0 38 -1 69 -45 73l-48 4v136l48 3c44 3 45 28 45 73v157c0 115 20 237 176 237h198v-128h-155c-35 0 -58 -9 -58 -80v-189c0 -65 -43 -131 -86 -151c43 -10 86 -61 86 -124v-212c0 -43 3 -80 58 -80h155v-128h-197z" />
    <glyph glyph-name="braceright" unicode="}" horiz-adv-x="465" 
d="M-5 -174v128h155c35 0 58 9 58 81v189c0 65 43 131 86 151c-43 10 -86 61 -86 124v212c0 43 -3 80 -58 80h-155v128h197c86 0 177 -28 177 -237v-172c0 -38 1 -69 45 -73l48 -4v-136l-48 -3c-44 -3 -45 -28 -45 -73v-157c0 -116 -20 -238 -176 -238h-198z" />
    <glyph glyph-name="bracketleft" unicode="[" horiz-adv-x="475" 
d="M90 -174v1092h380v-128h-219v-836h219v-128h-380z" />
    <glyph glyph-name="bracketright" unicode="]" horiz-adv-x="456" 
d="M5 -174v128h200v836h-200v128h361v-1092h-361z" />
    <glyph glyph-name="hyphen" unicode="-" horiz-adv-x="450" 
d="M45 302v122h360v-122h-360z" />
    <glyph glyph-name="uni00AD" unicode="&#xad;" horiz-adv-x="472" 
d="M56 302v122h360v-122h-360z" />
    <glyph glyph-name="endash" unicode="&#x2013;" horiz-adv-x="494" 
d="M45 302v122h404v-122h-404z" />
    <glyph glyph-name="emdash" unicode="&#x2014;" horiz-adv-x="783" 
d="M45 302v122h693v-122h-693z" />
    <glyph glyph-name="uni2015" unicode="&#x2015;" horiz-adv-x="812" 
d="M159 302v122h693v-122h-693z" />
    <glyph glyph-name="underscore" unicode="_" horiz-adv-x="786" 
d="M3 -243v124h780v-124h-780z" />
    <glyph glyph-name="quotesinglbase" unicode="&#x201a;" horiz-adv-x="307" 
d="M152 159c67 0 100 -28 100 -87c0 -31 -8 -57 -26 -93l-90 -177h-101l68 193c-33 12 -49 38 -49 79c0 57 32 85 98 85z" />
    <glyph glyph-name="quotedblbase" unicode="&#x201e;" horiz-adv-x="585" 
d="M152 159c67 0 100 -28 100 -87c0 -31 -8 -57 -26 -93l-90 -177h-101l68 193c-33 12 -49 38 -49 79c0 57 32 85 98 85zM430 159c67 0 100 -28 100 -87c0 -31 -8 -57 -26 -93l-90 -177h-101l68 193c-33 12 -49 38 -49 79c0 57 32 85 98 85z" />
    <glyph glyph-name="quotedblleft" unicode="&#x201c;" horiz-adv-x="585" 
d="M171 776h101l-68 -193c33 -12 49 -38 49 -79c0 -57 -32 -85 -98 -85c-67 0 -100 28 -100 87c0 31 8 57 26 93zM482 583c33 -12 49 -38 49 -79c0 -57 -32 -85 -98 -85c-67 0 -100 28 -100 87c0 31 8 57 26 93l90 177h101z" />
    <glyph glyph-name="quotedblright" unicode="&#x201d;" horiz-adv-x="585" 
d="M152 796c67 0 100 -28 100 -87c0 -31 -8 -57 -26 -93l-90 -177h-101l68 193c-33 12 -49 38 -49 79c0 57 32 85 98 85zM430 796c67 0 100 -28 100 -87c0 -31 -8 -57 -26 -93l-90 -177h-101l68 193c-33 12 -49 38 -49 79c0 57 32 85 98 85z" />
    <glyph glyph-name="quoteleft" unicode="&#x2018;" horiz-adv-x="307" 
d="M204 592c33 -12 49 -38 49 -79c0 -57 -32 -85 -98 -85c-67 0 -100 28 -100 87c0 31 8 57 26 93l90 177h101z" />
    <glyph glyph-name="quoteright" unicode="&#x2019;" horiz-adv-x="307" 
d="M152 796c67 0 100 -28 100 -87c0 -31 -8 -57 -26 -93l-90 -177h-101l68 193c-33 12 -49 38 -49 79c0 57 32 85 98 85z" />
    <glyph glyph-name="guillemotleft" unicode="&#xab;" horiz-adv-x="829" 
d="M368 492l-155 -133l158 -128l-83 -99l-258 180v92l266 186zM641 359l158 -128l-83 -99l-258 180v92l266 186l72 -98z" />
    <glyph glyph-name="guillemotright" unicode="&#xbb;" horiz-adv-x="829" 
d="M30 491l83 99l258 -180v-92l-266 -186l-72 98l155 133zM541 590l258 -180v-92l-266 -186l-72 98l155 133l-158 128z" />
    <glyph glyph-name="guilsinglleft" unicode="&#x2039;" horiz-adv-x="401" 
d="M213 359l158 -128l-83 -99l-258 180v92l266 186l72 -98z" />
    <glyph glyph-name="guilsinglright" unicode="&#x203a;" horiz-adv-x="401" 
d="M113 590l258 -180v-92l-266 -186l-72 98l155 133l-158 128z" />
    <glyph glyph-name="quotedbl" unicode="&#x22;" horiz-adv-x="535" 
d="M74 451l-19 325h165l-17 -325h-129zM334 451l-19 325h165l-17 -325h-129z" />
    <glyph glyph-name="quotesingle" unicode="'" horiz-adv-x="275" 
d="M74 451l-19 325h165l-17 -325h-129z" />
    <glyph glyph-name="anoteleia" unicode="&#x387;" horiz-adv-x="258" 
d="M129 263c-67 0 -99 28 -99 86c0 57 32 85 98 85c67 0 100 -28 100 -85c0 -58 -32 -86 -99 -86z" />
    <glyph glyph-name="uni037E" unicode="&#x37e;" horiz-adv-x="317" 
d="M163 282c-67 0 -99 28 -99 86c0 57 32 85 98 85c67 0 100 -28 100 -85c0 -58 -32 -86 -99 -86zM152 159c67 0 100 -28 100 -87c0 -31 -8 -57 -26 -93l-90 -177h-101l68 193c-33 12 -49 38 -49 79c0 57 32 85 98 85z" />
    <glyph glyph-name="uni2003" unicode="&#x2003;" horiz-adv-x="783" 
 />
    <glyph glyph-name="uni2002" unicode="&#x2002;" horiz-adv-x="494" 
 />
    <glyph glyph-name="uni200A" unicode="&#x200a;" horiz-adv-x="113" 
 />
    <glyph glyph-name="uni00A0" unicode="&#xa0;" horiz-adv-x="450" 
 />
    <glyph glyph-name="uni2009" unicode="&#x2009;" horiz-adv-x="225" 
 />
    <glyph glyph-name="cent" unicode="&#xa2;" horiz-adv-x="640" 
d="M595 485c-38 4 -75 7 -132 8v-224c55 1 96 3 132 7v-122c-44 -4 -88 -6 -132 -7v-191h-145v194c-177 9 -262 55 -262 232c0 170 87 219 262 230v203h145v-200c44 -1 88 -4 132 -8v-122zM224 380c0 -83 24 -104 94 -109v219c-67 -6 -94 -29 -94 -110z" />
    <glyph glyph-name="currency" unicode="&#xa4;" horiz-adv-x="814" 
d="M665 328c0 -45 -7 -81 -19 -111l103 -84l-84 -98l-110 88c-41 -18 -90 -25 -143 -25c-58 0 -109 7 -152 26l-111 -89l-84 98l103 84c-12 30 -19 67 -19 111c0 43 6 78 17 108l-101 81l86 103l107 -88c42 19 94 26 154 26c56 0 105 -7 144 -25l107 87l86 -103l-101 -81
c11 -30 17 -65 17 -108zM412 222c64 0 105 17 105 106c0 87 -41 105 -105 105c-67 0 -115 -18 -115 -105c0 -89 48 -106 115 -106z" />
    <glyph glyph-name="dollar" unicode="$" horiz-adv-x="860" 
d="M812 225c0 -173 -131 -224 -313 -234v-189h-145v187c-84 2 -194 11 -280 27v141c59 -14 175 -26 280 -30v168l-40 5c-144 16 -266 65 -266 219c0 155 125 205 306 217v179h145v-178c78 -3 166 -11 250 -27v-141c-66 15 -159 27 -250 31v-168l67 -8
c183 -21 246 -102 246 -199zM325 452l29 -3v148c-76 -9 -127 -31 -127 -78c0 -37 32 -59 98 -67zM499 129c69 7 127 25 127 77c0 45 -28 62 -76 67l-51 6v-150z" />
    <glyph glyph-name="Euro" unicode="&#x20ac;" horiz-adv-x="881" 
d="M533 594c-133 0 -212 -29 -253 -85h263v-111h-300c-1 -11 -1 -23 -1 -35c0 -11 0 -22 1 -33h300v-111h-263c41 -57 119 -87 253 -87c78 0 153 7 276 31v-144c-133 -25 -200 -31 -283 -31c-261 0 -401 79 -450 231h-99v111h80c-1 11 -1 22 -1 33c0 12 0 24 1 35h-80v111
h100c49 150 189 229 449 229c82 0 150 -5 283 -26v-144c-123 20 -199 26 -276 26z" />
    <glyph glyph-name="florin" unicode="&#x192;" horiz-adv-x="613" 
d="M94 -259c-37 0 -80 4 -129 10v122c35 -5 64 -8 87 -8c69 0 89 29 89 122v493c0 201 110 254 251 254c47 0 94 -6 146 -13v-121c-50 6 -91 10 -123 10c-85 0 -111 -28 -111 -139v-142h197v-113h-195v-237c0 -180 -62 -238 -212 -238z" />
    <glyph glyph-name="sterling" unicode="&#xa3;" horiz-adv-x="825" 
d="M65 0v144h96v269c0 197 110 323 354 323c83 0 140 -5 205 -20v-137c-54 10 -112 17 -166 17c-138 0 -213 -15 -213 -179h271v-132h-271v-141h414v-144h-690z" />
    <glyph glyph-name="yen" unicode="&#xa5;" horiz-adv-x="854" 
d="M854 726l-258 -337h109v-111h-191v-68h191v-111h-191v-99h-180v99h-195v111h195v68h-195v111h116l-255 337h214l211 -286l215 286h214z" />
    <glyph glyph-name="plus" unicode="+" horiz-adv-x="699" 
d="M269 40v176h-174v138h174v189h162v-189h173v-138h-173v-176h-162z" />
    <glyph glyph-name="minus" unicode="&#x2212;" horiz-adv-x="699" 
d="M95 216v138h509v-138h-509z" />
    <glyph glyph-name="multiply" unicode="&#xd7;" horiz-adv-x="697" 
d="M602 441l-156 -156l156 -156l-98 -97l-155 156l-156 -156l-98 97l156 156l-156 156l98 97l156 -155l155 155z" />
    <glyph glyph-name="divide" unicode="&#xf7;" horiz-adv-x="699" 
d="M350 400c-67 0 -99 28 -99 86c0 57 32 85 98 85c67 0 100 -28 100 -85c0 -58 -32 -86 -99 -86zM95 216v138h509v-138h-509zM350 -1c-67 0 -99 28 -99 86c0 57 32 85 98 85c67 0 100 -28 100 -85c0 -58 -32 -86 -99 -86z" />
    <glyph glyph-name="equal" unicode="=" horiz-adv-x="699" 
d="M95 362v138h509v-138h-509zM95 81v138h509v-138h-509z" />
    <glyph glyph-name="notequal" unicode="&#x2260;" horiz-adv-x="699" 
d="M604 362h-156l-61 -143h217v-138h-275l-55 -131h-126l55 131h-108v138h167l60 143h-227v138h285l52 122h125l-51 -122h98v-138z" />
    <glyph glyph-name="greater" unicode="&#x3e;" horiz-adv-x="694" 
d="M143 -9l-48 131l345 158l-344 159l48 128l455 -203v-168z" />
    <glyph glyph-name="less" unicode="&#x3c;" horiz-adv-x="694" 
d="M551 -9l-456 205v168l455 203l48 -128l-344 -159l345 -158z" />
    <glyph glyph-name="greaterequal" unicode="&#x2265;" horiz-adv-x="699" 
d="M152 206l-42 120l264 120l-267 119l48 122l436 -164v-154zM95 0v138h509v-138h-509z" />
    <glyph glyph-name="lessequal" unicode="&#x2264;" horiz-adv-x="699" 
d="M555 206l-440 163v154l437 164l48 -122l-268 -119l265 -120zM95 0v138h509v-138h-509z" />
    <glyph glyph-name="plusminus" unicode="&#xb1;" horiz-adv-x="699" 
d="M269 210v166h-174v138h174v169h162v-169h173v-138h-173v-166h-162zM95 0v138h509v-138h-509z" />
    <glyph glyph-name="approxequal" unicode="&#x2248;" horiz-adv-x="756" 
d="M173 330l-78 86c47 82 123 126 189 126c38 0 77 -12 105 -28l30 -17c19 -11 52 -27 70 -27c34 0 68 27 94 75l78 -76c-51 -83 -102 -129 -160 -129c-50 0 -84 19 -113 33l-29 14c-20 10 -53 20 -61 20c-48 0 -95 -26 -125 -77zM173 49l-78 86c47 82 122 126 189 126
c43 0 81 -14 105 -28l30 -17c22 -12 51 -27 70 -27c34 0 68 27 94 75l78 -76c-51 -83 -102 -129 -160 -129c-43 0 -76 15 -114 33l-28 13c-19 10 -52 21 -61 21c-49 0 -95 -26 -125 -77z" />
    <glyph glyph-name="logicalnot" unicode="&#xac;" horiz-adv-x="699" 
d="M443 80v282h-348v138h509v-420h-161z" />
    <glyph glyph-name="asciitilde" unicode="~" horiz-adv-x="820" 
d="M547 248c-46 0 -96 17 -133 40l-34 21c-23 14 -54 32 -78 32c-46 0 -84 -34 -121 -90l-86 85c55 93 126 144 196 144c44 0 87 -18 129 -44l34 -21c34 -21 55 -33 82 -33c38 0 69 32 95 91l94 -66c-33 -104 -115 -159 -178 -159z" />
    <glyph glyph-name="asciicircum" unicode="^" horiz-adv-x="666" 
d="M590 392h-160l-97 221l-98 -221h-160l173 334h169z" />
    <glyph glyph-name="infinity" unicode="&#x221e;" horiz-adv-x="1108" 
d="M755 558c114 0 215 -63 215 -222c0 -166 -104 -221 -210 -221h-44c-60 0 -126 27 -149 63c-36 -39 -100 -63 -179 -63h-41c-113 0 -209 62 -209 221c0 166 103 222 209 222h47c47 0 127 -26 159 -60c38 37 88 60 155 60h47zM482 332l8 57c-16 24 -54 46 -94 46h-5
c-35 0 -80 -15 -80 -99c0 -92 44 -99 70 -99h15c46 0 78 40 86 95zM728 237c30 0 72 10 72 98c0 75 -30 100 -70 100h-16c-29 0 -77 -27 -83 -103l-4 -49c17 -26 63 -46 94 -46h7z" />
    <glyph glyph-name="integral" unicode="&#x222b;" horiz-adv-x="514" 
d="M-4 -259v123h142c70 0 101 0 101 85c0 27 -13 74 -21 105l-80 307c-19 73 -20 121 -20 170c0 130 90 195 191 195h207v-123h-127c-71 0 -118 0 -118 -85c0 -27 12 -73 21 -106l83 -307c17 -64 20 -102 20 -168c0 -132 -79 -196 -186 -196h-213z" />
    <glyph glyph-name="uni2126" unicode="&#x2126;" horiz-adv-x="968" 
d="M65 0v143h115c-83 64 -110 148 -110 279c0 219 187 316 414 316s414 -97 414 -316c0 -130 -27 -215 -111 -279h116v-143h-335v128c69 52 138 149 138 255c0 175 -101 200 -222 200c-117 0 -223 -25 -223 -200c0 -107 70 -203 139 -255v-128h-335z" />
    <glyph glyph-name="uni2206" unicode="&#x2206;" horiz-adv-x="894" 
d="M515 726l316 -606v-120h-768v120l317 606h135zM441 522l-182 -379h372z" />
    <glyph glyph-name="product" unicode="&#x220f;" horiz-adv-x="970" 
d="M150 -200v785h-108v141h886v-141h-109v-785h-180v785h-309v-785h-180z" />
    <glyph glyph-name="summation" unicode="&#x2211;" horiz-adv-x="750" 
d="M307 -49h444v-151h-671v150l327 311l-327 320v145h669v-139h-424l253 -270v-101z" />
    <glyph glyph-name="radical" unicode="&#x221a;" horiz-adv-x="676" 
d="M510 742h154l-298 -742h-156l-113 273h-82v127h167l103 -242z" />
    <glyph glyph-name="uni00B5" unicode="&#xb5;" horiz-adv-x="658" 
d="M60 -246v699h164v-218c0 -39 3 -71 16 -90c12 -18 36 -23 77 -23h117v331h164v-453h-257c-28 0 -61 1 -84 9c-15 5 -23 11 -33 25v-280h-164z" />
    <glyph glyph-name="partialdiff" unicode="&#x2202;" horiz-adv-x="881" 
d="M446 -12c-213 0 -390 66 -390 264c0 196 158 204 283 204h290c-5 103 -76 129 -206 129h-295v141h320c259 0 377 -117 377 -353c0 -305 -141 -385 -379 -385zM442 138c139 0 190 29 195 185h-287c-84 0 -113 -7 -113 -79c0 -88 114 -106 205 -106z" />
    <glyph glyph-name="percent" unicode="%" horiz-adv-x="1033" 
d="M233 370c-130 0 -188 60 -188 183c0 125 58 185 188 185c127 0 185 -60 185 -185c0 -123 -58 -183 -185 -183zM201 -12l491 750h153l-491 -750h-153zM233 480c31 0 48 14 48 73c0 60 -17 74 -48 74c-32 0 -49 -14 -49 -74c0 -59 17 -73 49 -73zM803 -12
c-130 0 -188 60 -188 183c0 125 58 185 188 185c127 0 185 -60 185 -185c0 -123 -58 -183 -185 -183zM803 98c31 0 48 14 48 73c0 60 -17 74 -48 74c-32 0 -49 -14 -49 -74c0 -59 17 -73 49 -73z" />
    <glyph glyph-name="perthousand" unicode="&#x2030;" horiz-adv-x="1508" 
d="M233 370c-130 0 -188 60 -188 183c0 125 58 185 188 185c127 0 185 -60 185 -185c0 -123 -58 -183 -185 -183zM201 -12l491 750h153l-491 -750h-153zM233 480c31 0 48 14 48 73c0 60 -17 74 -48 74c-32 0 -49 -14 -49 -74c0 -59 17 -73 49 -73zM803 -12
c-130 0 -188 60 -188 183c0 125 58 185 188 185c127 0 185 -60 185 -185c0 -123 -58 -183 -185 -183zM1278 -12c-130 0 -188 60 -188 183c0 125 58 185 188 185c127 0 185 -60 185 -185c0 -123 -58 -183 -185 -183zM803 98c31 0 48 14 48 73c0 60 -17 74 -48 74
c-32 0 -49 -14 -49 -74c0 -59 17 -73 49 -73zM1278 98c31 0 48 14 48 73c0 60 -17 74 -48 74c-32 0 -49 -14 -49 -74c0 -59 17 -73 49 -73z" />
    <glyph glyph-name="lozenge" unicode="&#x25ca;" horiz-adv-x="908" 
d="M367 0l-225 339v46l225 340h182l217 -340v-46l-217 -339h-182zM456 135h3l158 227l-158 227h-3l-164 -227z" />
    <glyph glyph-name="uniF8FF" unicode="&#xf8ff;" horiz-adv-x="555" 
d="M144 594c-17 0 -30 13 -30 31c0 17 13 30 30 30c18 0 31 -13 31 -30c0 -18 -13 -31 -31 -31zM210 594c-17 0 -30 13 -30 31c0 17 13 30 30 30c18 0 31 -13 31 -30c0 -18 -13 -31 -31 -31zM276 594c-17 0 -30 13 -30 31c0 17 13 30 30 30c18 0 31 -13 31 -30
c0 -18 -13 -31 -31 -31zM342 594c-17 0 -30 13 -30 31c0 17 13 30 30 30c18 0 31 -13 31 -30c0 -18 -13 -31 -31 -31zM408 594c-17 0 -30 13 -30 31c0 17 13 30 30 30c18 0 31 -13 31 -30c0 -18 -13 -31 -31 -31zM474 594c-17 0 -30 13 -30 31c0 17 13 30 30 30
c18 0 31 -13 31 -30c0 -18 -13 -31 -31 -31zM144 528c-17 0 -30 13 -30 31c0 17 13 30 30 30c18 0 31 -13 31 -30c0 -18 -13 -31 -31 -31zM144 462c-17 0 -30 13 -30 31c0 17 13 30 30 30c18 0 31 -13 31 -30c0 -18 -13 -31 -31 -31zM276 462c-17 0 -30 13 -30 31
c0 17 13 30 30 30c18 0 31 -13 31 -30c0 -18 -13 -31 -31 -31zM342 462c-17 0 -30 13 -30 31c0 17 13 30 30 30c18 0 31 -13 31 -30c0 -18 -13 -31 -31 -31zM408 462c-17 0 -30 13 -30 31c0 17 13 30 30 30c18 0 31 -13 31 -30c0 -18 -13 -31 -31 -31zM474 462
c-17 0 -30 13 -30 31c0 17 13 30 30 30c18 0 31 -13 31 -30c0 -18 -13 -31 -31 -31zM144 396c-17 0 -30 13 -30 31c0 17 13 30 30 30c18 0 31 -13 31 -30c0 -18 -13 -31 -31 -31zM276 396c-17 0 -30 13 -30 31c0 17 13 30 30 30c18 0 31 -13 31 -30c0 -18 -13 -31 -31 -31z
M144 330c-17 0 -30 13 -30 31c0 17 13 30 30 30c18 0 31 -13 31 -30c0 -18 -13 -31 -31 -31zM276 330c-17 0 -30 13 -30 31c0 17 13 30 30 30c18 0 31 -13 31 -30c0 -18 -13 -31 -31 -31zM342 330c-17 0 -30 13 -30 31c0 17 13 30 30 30c18 0 31 -13 31 -30
c0 -18 -13 -31 -31 -31zM408 330c-17 0 -30 13 -30 31c0 17 13 30 30 30c18 0 31 -13 31 -30c0 -18 -13 -31 -31 -31zM474 330c-17 0 -30 13 -30 31c0 17 13 30 30 30c18 0 31 -13 31 -30c0 -18 -13 -31 -31 -31zM144 264c-17 0 -30 13 -30 31c0 17 13 30 30 30
c18 0 31 -13 31 -30c0 -18 -13 -31 -31 -31zM474 264c-17 0 -30 13 -30 31c0 17 13 30 30 30c18 0 31 -13 31 -30c0 -18 -13 -31 -31 -31zM144 198c-17 0 -30 13 -30 31c0 17 13 30 30 30c18 0 31 -13 31 -30c0 -18 -13 -31 -31 -31zM276 198c-17 0 -30 13 -30 31
c0 17 13 30 30 30c18 0 31 -13 31 -30c0 -18 -13 -31 -31 -31zM342 198c-17 0 -30 13 -30 31c0 17 13 30 30 30c18 0 31 -13 31 -30c0 -18 -13 -31 -31 -31zM408 198c-17 0 -30 13 -30 31c0 17 13 30 30 30c18 0 31 -13 31 -30c0 -18 -13 -31 -31 -31zM474 198
c-17 0 -30 13 -30 31c0 17 13 30 30 30c18 0 31 -13 31 -30c0 -18 -13 -31 -31 -31zM144 132c-17 0 -30 13 -30 31c0 17 13 30 30 30c18 0 31 -13 31 -30c0 -18 -13 -31 -31 -31zM144 66c-17 0 -30 13 -30 31c0 17 13 30 30 30c18 0 31 -13 31 -30c0 -18 -13 -31 -31 -31z
M276 66c-17 0 -30 13 -30 31c0 17 13 30 30 30c18 0 31 -13 31 -30c0 -18 -13 -31 -31 -31zM144 0c-17 0 -30 13 -30 31c0 17 13 30 30 30c18 0 31 -13 31 -30c0 -18 -13 -31 -31 -31zM210 0c-17 0 -30 13 -30 31c0 17 13 30 30 30c18 0 31 -13 31 -30
c0 -18 -13 -31 -31 -31zM276 0c-17 0 -30 13 -30 31c0 17 13 30 30 30c18 0 31 -13 31 -30c0 -18 -13 -31 -31 -31z" />
    <glyph glyph-name="at" unicode="@" horiz-adv-x="1087" 
d="M521 539h214v-272c115 5 152 49 152 161c0 182 -156 198 -332 198c-220 0 -346 -95 -346 -271c0 -230 182 -258 406 -258c104 0 217 13 324 30v-109c-119 -20 -239 -30 -346 -30c-303 0 -537 59 -537 369c0 232 222 381 492 381c271 0 483 -75 483 -311
c0 -167 -102 -253 -331 -253h-179c-129 0 -172 80 -172 183s43 182 172 182zM612 268v177h-75c-56 0 -63 -48 -63 -88s7 -89 63 -89h75z" />
    <glyph glyph-name="ampersand" unicode="&#x26;" horiz-adv-x="971" 
d="M976 0h-234l-65 46c-57 -38 -134 -58 -253 -58c-297 0 -379 64 -379 194c0 94 77 150 166 187c-96 74 -108 135 -108 175c0 124 94 193 314 193c224 0 294 -73 294 -178c0 -88 -58 -151 -210 -219l155 -111c15 26 17 60 17 92h151c0 -66 -22 -137 -52 -175zM417 598
c-125 0 -142 -30 -142 -63c0 -25 12 -50 94 -104c112 37 173 72 173 111c0 27 -14 56 -125 56zM424 126c39 0 79 6 115 17l-203 141c-64 -18 -117 -42 -117 -86c0 -52 35 -72 205 -72z" />
    <glyph glyph-name="paragraph" unicode="&#xb6;" horiz-adv-x="919" 
d="M412 -222v478h-122c-163 0 -234 81 -234 235c0 163 80 235 234 235h539v-948h-154v840h-108v-840h-155z" />
    <glyph glyph-name="section" unicode="&#xa7;" horiz-adv-x="632" 
d="M499 81c40 -28 74 -70 74 -146c0 -119 -103 -166 -279 -166c-65 0 -131 4 -213 18v131c84 -12 150 -17 212 -17c79 0 125 13 125 46c0 21 -11 31 -28 39l-188 92c-45 22 -148 73 -148 196c0 65 30 122 81 156c-42 31 -70 80 -70 143c0 111 104 165 259 165
c60 0 132 -6 218 -27v-128c-84 22 -152 27 -209 27c-69 0 -130 -11 -130 -49c0 -20 18 -30 47 -43l191 -85c74 -33 143 -88 143 -188c0 -73 -38 -137 -85 -164zM204 286c0 -55 44 -79 52 -83l118 -58c23 21 51 57 51 98c0 23 -9 45 -39 61l-130 70c-39 -34 -52 -60 -52 -88z
" />
    <glyph glyph-name="copyright" unicode="&#xa9;" horiz-adv-x="1002" 
d="M501 -12c-281 0 -445 134 -445 375s164 375 445 375s445 -134 445 -375s-164 -375 -445 -375zM501 91c206 0 320 89 320 272s-114 272 -320 272s-320 -89 -320 -272s114 -272 320 -272zM524 173c-159 0 -253 54 -253 190c0 139 94 191 250 191c39 0 82 -2 129 -6v-96
c-39 5 -74 7 -104 7c-92 0 -145 -15 -145 -96c0 -79 58 -94 154 -94c28 0 63 1 95 5v-95c-46 -4 -88 -6 -126 -6z" />
    <glyph glyph-name="registered" unicode="&#xae;" horiz-adv-x="1002" 
d="M501 -12c-281 0 -445 134 -445 375s164 375 445 375s445 -134 445 -375s-164 -375 -445 -375zM501 91c206 0 320 89 320 272s-114 272 -320 272s-320 -89 -320 -272s114 -272 320 -272zM292 179v369h300c67 0 118 -34 118 -136c0 -68 -26 -118 -68 -127
c18 -7 29 -24 41 -41l47 -65h-144l-41 70c-14 24 -18 29 -42 29h-72v-99h-139zM431 368h100c12 0 43 0 43 43c0 41 -24 44 -39 44h-104v-87z" />
    <glyph glyph-name="trademark" unicode="&#x2122;" horiz-adv-x="1072" 
d="M152 358v251h-127v117h394v-117h-126v-251h-141zM452 358v368h159l127 -222l123 222h156v-368h-145v199l-97 -190h-73l-104 188v-197h-146z" />
    <glyph glyph-name="degree" unicode="&#xb0;" horiz-adv-x="383" 
d="M150 416c-78 0 -135 65 -135 155s57 155 135 155h83c78 0 135 -65 135 -155s-57 -155 -135 -155h-83zM181 514h22c24 0 40 22 40 57c0 36 -16 58 -40 58h-22c-25 0 -41 -22 -41 -58c0 -35 16 -57 41 -57z" />
    <glyph glyph-name="bar" unicode="|" horiz-adv-x="433" 
d="M132 -317v1113h165v-1113h-165z" />
    <glyph glyph-name="brokenbar" unicode="&#xa6;" horiz-adv-x="433" 
d="M132 343v453h165v-453h-165zM132 -317v463h165v-463h-165z" />
    <glyph glyph-name="dagger" unicode="&#x2020;" horiz-adv-x="664" 
d="M239 -317l13 640l-212 -9v152l211 -9l-12 325h186l-13 -325l212 9v-152l-214 8l15 -639h-186z" />
    <glyph glyph-name="uni2113" unicode="&#x2113;" horiz-adv-x="359" 
d="M97 0v726h165v-726h-165z" />
    <glyph glyph-name="daggerdbl" unicode="&#x2021;" horiz-adv-x="664" 
d="M241 -317l10 262l-211 -9v152l213 -9v293l-213 -9v152l212 -9l-13 276h186l-14 -276l213 9v-152l-215 8v-292l215 9v-152l-213 8l14 -261h-184z" />
    <glyph glyph-name="estimated" unicode="&#x212e;" horiz-adv-x="816" 
d="M409 -4c-208 0 -378 151 -378 339s170 339 378 339c207 0 376 -151 376 -339v-8h-611c-3 0 -5 -1 -5 -5v-185c0 -8 4 -15 9 -22c58 -60 141 -99 232 -99c97 0 184 44 242 112h55c-69 -80 -177 -132 -298 -132zM174 345h468c3 0 5 2 5 5v187c0 8 -4 16 -10 22
c-58 58 -139 95 -227 95c-91 0 -172 -38 -231 -98c-6 -6 -10 -15 -10 -24v-182c0 -3 2 -5 5 -5z" />
    <glyph glyph-name="uni2116" unicode="&#x2116;" horiz-adv-x="1487" 
d="M720 256v470h176v-726h-161l-470 486v-486h-175v726h175zM1237 437c-96 0 -183 24 -183 145c0 119 80 144 183 144s183 -25 183 -144c0 -121 -87 -145 -183 -145zM1237 645c-33 0 -62 -11 -62 -63c0 -53 24 -63 62 -63s62 10 62 63c0 52 -29 63 -62 63zM1056 272v98h352
v-98h-352z" />
    <glyph glyph-name="uni0374" unicode="&#x374;" horiz-adv-x="716" 
d="M216 525l93 215h211l-140 -215h-164z" />
    <glyph glyph-name="uni0375" unicode="&#x375;" horiz-adv-x="717" 
d="M205 -293l140 215h164l-94 -215h-210z" />
    <glyph glyph-name="uni0308" unicode="&#x308;" 
d="M-409 535c-54 0 -82 27 -82 79s28 79 81 79c55 0 84 -27 84 -79s-29 -79 -83 -79zM-184 535c-54 0 -82 27 -82 79s28 79 81 79c54 0 83 -27 83 -79s-28 -79 -82 -79z" />
    <glyph glyph-name="uni0307" unicode="&#x307;" 
d="M-444 529c-63 0 -96 29 -96 85s32 85 95 85c64 0 97 -29 97 -85s-33 -85 -96 -85z" />
    <glyph glyph-name="gravecomb" unicode="&#x300;" 
d="M-354 545l-143 185h196l102 -185h-155z" />
    <glyph glyph-name="acutecomb" unicode="&#x301;" 
d="M-603 545l102 185h196l-144 -185h-154z" />
    <glyph glyph-name="uni030B" unicode="&#x30b;" 
d="M-482 545l80 185h183l-114 -185h-149zM-264 545l81 185h182l-114 -185h-149z" />
    <glyph glyph-name="uni030C.alt" 
d="M-464 452l31 274h162l-66 -274h-127z" />
    <glyph glyph-name="uni0302" unicode="&#x302;" 
d="M-482 531l139 188h148l139 -188h-164l-45 84h-7l-46 -84h-164z" />
    <glyph glyph-name="uni030C" unicode="&#x30c;" 
d="M-482 718h164l46 -84h7l45 84h164l-139 -188h-148z" />
    <glyph glyph-name="uni0306" unicode="&#x306;" 
d="M-280 543c-115 0 -195 61 -195 181h134c9 -65 36 -82 73 -82h6c40 0 67 27 73 82h133c-1 -121 -77 -181 -193 -181h-31z" />
    <glyph glyph-name="uni030A" unicode="&#x30a;" 
d="M-201 536c-58 0 -89 37 -89 108s31 108 89 108h56c59 0 89 -37 89 -108s-30 -108 -89 -108h-56zM-180 603h14c22 0 28 15 28 41s-6 41 -28 41h-14c-21 0 -28 -15 -28 -41s7 -41 28 -41z" />
    <glyph glyph-name="tildecomb" unicode="&#x303;" 
d="M-418 539l-58 66c39 65 97 105 155 105c21 0 44 -5 72 -22l21 -13c21 -13 35 -23 59 -23c26 0 54 24 74 59l62 -57c-26 -63 -85 -114 -137 -114c-38 0 -59 12 -85 27l-21 12c-19 11 -39 15 -50 15c-28 0 -63 -20 -92 -55z" />
    <glyph glyph-name="uni0304" unicode="&#x304;" 
d="M-489 571v112h386v-112h-386z" />
    <glyph glyph-name="uni0326" unicode="&#x326;" 
d="M-396 -336l31 274h162l-66 -274h-127z" />
    <glyph glyph-name="uni0327" unicode="&#x327;" 
d="M-524 -309v102h168c12 0 25 4 25 30c0 27 -3 31 -27 31h-120l27 154h102l-5 -53h35c74 0 121 -47 121 -123c0 -99 -46 -141 -131 -141h-195z" />
    <glyph glyph-name="uni0328" unicode="&#x328;" 
d="M-440 -309c-82 0 -125 39 -125 117c0 63 25 141 134 218l159 -26c-140 -68 -151 -138 -151 -164c0 -33 11 -43 52 -43h46v-102h-115z" />
    <glyph glyph-name="acute" unicode="&#xb4;" horiz-adv-x="728" 
d="M125 545l102 185h196l-144 -185h-154z" />
    <glyph glyph-name="breve" unicode="&#x2d8;" horiz-adv-x="531" 
d="M251 543c-115 0 -195 61 -195 181h134c9 -65 36 -82 73 -82h6c40 0 67 27 73 82h133c-1 -121 -77 -181 -193 -181h-31z" />
    <glyph glyph-name="caron" unicode="&#x2c7;" horiz-adv-x="538" 
d="M56 718h164l46 -84h7l45 84h164l-139 -188h-148z" />
    <glyph glyph-name="cedilla" unicode="&#xb8;" horiz-adv-x="681" 
d="M157 -309v102h168c12 0 25 4 25 30c0 27 -3 31 -27 31h-120l27 154h102l-5 -53h35c74 0 121 -47 121 -123c0 -99 -46 -141 -131 -141h-195z" />
    <glyph glyph-name="circumflex" unicode="&#x2c6;" horiz-adv-x="538" 
d="M56 531l139 188h148l139 -188h-164l-45 84h-7l-46 -84h-164z" />
    <glyph glyph-name="dieresis" unicode="&#xa8;" horiz-adv-x="586" 
d="M177 535c-54 0 -82 27 -82 79s28 79 81 79c55 0 84 -27 84 -79s-29 -79 -83 -79zM402 535c-54 0 -82 27 -82 79s28 79 81 79c54 0 83 -27 83 -79s-28 -79 -82 -79z" />
    <glyph glyph-name="dotaccent" unicode="&#x2d9;" horiz-adv-x="884" 
d="M440 529c-63 0 -96 29 -96 85s32 85 95 85c64 0 97 -29 97 -85s-33 -85 -96 -85z" />
    <glyph glyph-name="grave" unicode="`" horiz-adv-x="724" 
d="M370 545l-143 185h196l102 -185h-155z" />
    <glyph glyph-name="hungarumlaut" unicode="&#x2dd;" horiz-adv-x="446" 
d="M-36 545l80 185h183l-114 -185h-149zM182 545l81 185h182l-114 -185h-149z" />
    <glyph glyph-name="macron" unicode="&#xaf;" horiz-adv-x="592" 
d="M103 571v112h386v-112h-386z" />
    <glyph glyph-name="ogonek" unicode="&#x2db;" horiz-adv-x="774" 
d="M334 -309c-82 0 -125 39 -125 117c0 63 25 141 134 218l159 -26c-140 -68 -151 -138 -151 -164c0 -33 11 -43 52 -43h46v-102h-115z" />
    <glyph glyph-name="ring" unicode="&#x2da;" horiz-adv-x="346" 
d="M145 536c-58 0 -89 37 -89 108s31 108 89 108h56c59 0 89 -37 89 -108s-30 -108 -89 -108h-56zM166 603h14c22 0 28 15 28 41s-6 41 -28 41h-14c-21 0 -28 -15 -28 -41s7 -41 28 -41z" />
    <glyph glyph-name="tilde" unicode="&#x2dc;" horiz-adv-x="507" 
d="M89 539l-58 66c39 65 97 105 155 105c21 0 44 -5 72 -22l21 -13c21 -13 35 -23 59 -23c26 0 54 24 74 59l62 -57c-26 -63 -85 -114 -137 -114c-38 0 -59 12 -85 27l-21 12c-19 11 -39 15 -50 15c-28 0 -63 -20 -92 -55z" />
    <glyph glyph-name="uni0308.case" 
d="M-397 796c-54 0 -82 27 -82 79s28 79 81 79c55 0 84 -27 84 -79s-29 -79 -83 -79zM-172 796c-54 0 -82 27 -82 79s28 79 81 79c54 0 83 -27 83 -79s-28 -79 -82 -79z" />
    <glyph glyph-name="uni0307.case" 
d="M-152 790c-63 0 -96 29 -96 85s32 85 95 85c64 0 97 -29 97 -85s-33 -85 -96 -85z" />
    <glyph glyph-name="gravecomb.case" 
d="M-354 805l-143 185h196l102 -185h-155z" />
    <glyph glyph-name="acutecomb.case" 
d="M-574 805l102 185h196l-144 -185h-154z" />
    <glyph glyph-name="uni030B.case" 
d="M-482 805l80 185h183l-114 -185h-149zM-264 805l81 185h182l-114 -185h-149z" />
    <glyph glyph-name="uni0302.case" 
d="M-476 791l139 188h148l139 -188h-164l-45 84h-7l-46 -84h-164z" />
    <glyph glyph-name="uni030C.case" 
d="M-337 789l-139 188h164l46 -84h7l45 84h164l-139 -188h-148z" />
    <glyph glyph-name="uni0306.case" 
d="M-286 803c-115 0 -195 61 -195 181h134c9 -65 36 -82 73 -82h6c40 0 67 27 73 82h133c-1 -121 -77 -181 -193 -181h-31z" />
    <glyph glyph-name="uni030A.case" 
d="M-445 766c-58 0 -95 37 -95 108s37 108 95 108h63c58 0 96 -37 96 -108s-38 -108 -96 -108h-63zM-424 833h21c21 0 35 15 35 41s-14 41 -35 41h-21c-21 0 -34 -15 -34 -41s14 -41 34 -41z" />
    <glyph glyph-name="tildecomb.case" 
d="M-418 799l-58 66c37 62 95 105 155 105c21 0 44 -5 72 -22l21 -13c21 -13 39 -23 59 -23c26 0 54 24 74 59l62 -57c-26 -63 -85 -114 -137 -114c-38 0 -59 12 -85 27l-21 12c-19 11 -39 15 -50 15c-30 0 -66 -23 -92 -55z" />
    <glyph glyph-name="uni0304.case" 
d="M-489 831v112h386v-112h-386z" />
    <glyph glyph-name="tonos" unicode="&#x384;" horiz-adv-x="716" 
d="M216 545l93 215h211l-140 -215h-164z" />
    <glyph glyph-name="dieresistonos" unicode="&#x385;" horiz-adv-x="305" 
d="M49 525l79 245h187l-120 -245h-146zM-50 536c-57 0 -82 12 -82 78s23 79 81 79c59 0 84 -13 84 -79s-24 -78 -83 -78zM360 536c-57 0 -82 12 -82 78s24 79 82 79s83 -13 83 -79s-24 -78 -83 -78z" />
    </font>
</defs>
</svg>
