<?xml version="1.0" standalone="no"?>
<!DOCTYPE svg PUBLIC "-//W3C//DTD SVG 1.1//EN" "http://www.w3.org/Graphics/SVG/1.1/DTD/svg11.dtd" >
<svg xmlns="http://www.w3.org/2000/svg" xmlns:xlink="http://www.w3.org/1999/xlink" version="1.1">
<metadata>
Created by FontForge 20201107 at Thu Jan  9 12:54:45 2020
 By Jimmy Wärting
Copyright \(c\) 2020 by Fontsmith Ltd. All rights reserved. This font may not be altered in any way without prior permission of Fontsmith Ltd.
</metadata>
<defs>
<font id="JaguarModern-Regular" horiz-adv-x="0" >
  <font-face 
    font-family="Jaguar Modern"
    font-weight="400"
    font-stretch="normal"
    units-per-em="1000"
    panose-1="2 6 5 3 3 2 2 5 2 3"
    ascent="741"
    descent="-259"
    cap-height="726"
    bbox="-551 -336 1450 1186"
    underline-thickness="101"
    underline-position="-100"
    stemh="102"
    stemv="137"
    unicode-range="U+000D-F8FF"
  />
<missing-glyph horiz-adv-x="562" 
d="M92 0v706h378v-706h-378zM282 398l128 258h-258zM130 96l129 257l-129 257v-514zM433 96v514l-129 -257zM152 51h258l-128 256z" />
    <glyph glyph-name=".notdef" horiz-adv-x="562" 
d="M92 0v706h378v-706h-378zM282 398l128 258h-258zM130 96l129 257l-129 257v-514zM433 96v514l-129 -257zM152 51h258l-128 256z" />
    <glyph glyph-name=".null" 
 />
    <glyph glyph-name="CR" unicode="&#xd;" horiz-adv-x="450" 
 />
    <glyph glyph-name="space" unicode=" " horiz-adv-x="450" 
 />
    <glyph glyph-name="A" unicode="A" horiz-adv-x="900" 
d="M727 0l-68 140h-421l-67 -140h-145l367 726h113l368 -726h-147zM289 245h319l-160 331z" />
    <glyph glyph-name="A" unicode="a" horiz-adv-x="900" 
d="M727 0l-68 140h-421l-67 -140h-145l367 726h113l368 -726h-147zM289 245h319l-160 331z" />
    <glyph glyph-name="Aacute" unicode="&#xc1;" horiz-adv-x="900" 
d="M649 990l-144 -185h-119l102 185h161zM727 0l-68 140h-421l-67 -140h-145l367 726h113l368 -726h-147zM289 245h319l-160 331z" />
    <glyph glyph-name="Aacute" unicode="&#xe1;" horiz-adv-x="900" 
d="M649 990l-144 -185h-119l102 185h161zM727 0l-68 140h-421l-67 -140h-145l367 726h113l368 -726h-147zM289 245h319l-160 331z" />
    <glyph glyph-name="Abreve" unicode="&#x102;" horiz-adv-x="900" 
d="M440 813c-103 0 -174 57 -180 171h100c6 -54 36 -89 87 -89h6c51 0 82 35 87 89h100c-7 -116 -78 -171 -179 -171h-21zM727 0l-68 140h-421l-67 -140h-145l367 726h113l368 -726h-147zM289 245h319l-160 331z" />
    <glyph glyph-name="Abreve" unicode="&#x103;" horiz-adv-x="900" 
d="M440 813c-103 0 -174 57 -180 171h100c6 -54 36 -89 87 -89h6c51 0 82 35 87 89h100c-7 -116 -78 -171 -179 -171h-21zM727 0l-68 140h-421l-67 -140h-145l367 726h113l368 -726h-147zM289 245h319l-160 331z" />
    <glyph glyph-name="uni01CD" unicode="&#x1cd;" horiz-adv-x="900" 
d="M504 799h-108l-140 188h126l64 -99h7l64 99h126zM727 0l-68 140h-421l-67 -140h-145l367 726h113l368 -726h-147zM289 245h319l-160 331z" />
    <glyph glyph-name="uni01CD" unicode="&#x1ce;" horiz-adv-x="900" 
d="M504 799h-108l-140 188h126l64 -99h7l64 99h126zM727 0l-68 140h-421l-67 -140h-145l367 726h113l368 -726h-147zM289 245h319l-160 331z" />
    <glyph glyph-name="Acircumflex" unicode="&#xc2;" horiz-adv-x="900" 
d="M446 891l-64 -100h-126l140 188h108l139 -188h-126l-64 100h-7zM727 0l-68 140h-421l-67 -140h-145l367 726h113l368 -726h-147zM289 245h319l-160 331z" />
    <glyph glyph-name="Acircumflex" unicode="&#xe2;" horiz-adv-x="900" 
d="M446 891l-64 -100h-126l140 188h108l139 -188h-126l-64 100h-7zM727 0l-68 140h-421l-67 -140h-145l367 726h113l368 -726h-147zM289 245h319l-160 331z" />
    <glyph glyph-name="Adieresis" unicode="&#xc4;" horiz-adv-x="900" 
d="M339 815c-47 0 -72 20 -72 73s25 75 72 75c45 0 71 -22 71 -75s-26 -73 -71 -73zM560 815c-46 0 -71 20 -71 73s25 75 71 75s72 -22 72 -75s-26 -73 -72 -73zM727 0l-68 140h-421l-67 -140h-145l367 726h113l368 -726h-147zM289 245h319l-160 331z" />
    <glyph glyph-name="Adieresis" unicode="&#xe4;" horiz-adv-x="900" 
d="M339 815c-47 0 -72 20 -72 73s25 75 72 75c45 0 71 -22 71 -75s-26 -73 -71 -73zM560 815c-46 0 -71 20 -71 73s25 75 71 75s72 -22 72 -75s-26 -73 -72 -73zM727 0l-68 140h-421l-67 -140h-145l367 726h113l368 -726h-147zM289 245h319l-160 331z" />
    <glyph glyph-name="Agrave" unicode="&#xc0;" horiz-adv-x="900" 
d="M526 805h-120l-143 185h161zM727 0l-68 140h-421l-67 -140h-145l367 726h113l368 -726h-147zM289 245h319l-160 331z" />
    <glyph glyph-name="Agrave" unicode="&#xe0;" horiz-adv-x="900" 
d="M526 805h-120l-143 185h161zM727 0l-68 140h-421l-67 -140h-145l367 726h113l368 -726h-147zM289 245h319l-160 331z" />
    <glyph glyph-name="Amacron" unicode="&#x100;" horiz-adv-x="900" 
d="M643 931v-88h-386v88h386zM727 0l-68 140h-421l-67 -140h-145l367 726h113l368 -726h-147zM289 245h319l-160 331z" />
    <glyph glyph-name="Amacron" unicode="&#x101;" horiz-adv-x="900" 
d="M643 931v-88h-386v88h386zM727 0l-68 140h-421l-67 -140h-145l367 726h113l368 -726h-147zM289 245h319l-160 331z" />
    <glyph glyph-name="Aogonek" unicode="&#x104;" horiz-adv-x="900" 
d="M728 -171c0 -25 15 -52 39 -52h63v-86h-78c-81 0 -131 44 -131 122c0 58 31 123 105 189l-67 138h-421l-67 -140h-145l367 726h113l368 -726c-94 -49 -146 -116 -146 -171zM289 245h319l-160 331z" />
    <glyph glyph-name="Aogonek" unicode="&#x105;" horiz-adv-x="900" 
d="M728 -171c0 -25 15 -52 39 -52h63v-86h-78c-81 0 -131 44 -131 122c0 58 31 123 105 189l-67 138h-421l-67 -140h-145l367 726h113l368 -726c-94 -49 -146 -116 -146 -171zM289 245h319l-160 331z" />
    <glyph glyph-name="Aring" unicode="&#xc5;" horiz-adv-x="900" 
d="M427 756c-49 0 -94 20 -94 108c0 72 34 108 94 108h46c50 0 94 -20 94 -108c0 -73 -36 -108 -94 -108h-46zM440 912c-26 0 -39 -16 -39 -48s13 -48 39 -48h20c26 0 39 16 39 48s-13 48 -39 48h-20zM727 0l-68 140h-421l-67 -140h-145l367 726h113l368 -726h-147zM289 245
h319l-160 331z" />
    <glyph glyph-name="Aring" unicode="&#xe5;" horiz-adv-x="900" 
d="M427 756c-49 0 -94 20 -94 108c0 72 34 108 94 108h46c50 0 94 -20 94 -108c0 -73 -36 -108 -94 -108h-46zM440 912c-26 0 -39 -16 -39 -48s13 -48 39 -48h20c26 0 39 16 39 48s-13 48 -39 48h-20zM727 0l-68 140h-421l-67 -140h-145l367 726h113l368 -726h-147zM289 245
h319l-160 331z" />
    <glyph glyph-name="Aringacute" unicode="&#x1fa;" horiz-adv-x="900" 
d="M649 1186l-144 -185h-119l102 185h161zM427 756c-49 0 -94 20 -94 108c0 72 34 108 94 108h46c50 0 94 -20 94 -108c0 -73 -36 -108 -94 -108h-46zM440 912c-26 0 -39 -16 -39 -48s13 -48 39 -48h20c26 0 39 16 39 48s-13 48 -39 48h-20zM727 0l-68 140h-421l-67 -140
h-145l367 726h113l368 -726h-147zM289 245h319l-160 331z" />
    <glyph glyph-name="Aringacute" unicode="&#x1fb;" horiz-adv-x="900" 
d="M649 1186l-144 -185h-119l102 185h161zM427 756c-49 0 -94 20 -94 108c0 72 34 108 94 108h46c50 0 94 -20 94 -108c0 -73 -36 -108 -94 -108h-46zM440 912c-26 0 -39 -16 -39 -48s13 -48 39 -48h20c26 0 39 16 39 48s-13 48 -39 48h-20zM727 0l-68 140h-421l-67 -140
h-145l367 726h113l368 -726h-147zM289 245h319l-160 331z" />
    <glyph glyph-name="Atilde" unicode="&#xc3;" horiz-adv-x="900" 
d="M379 865c-31 0 -65 -22 -92 -57l-51 54c39 65 90 101 148 101c20 0 46 -7 71 -23l22 -14c19 -12 38 -24 59 -24c25 0 52 20 74 56l53 -46c-26 -63 -75 -102 -128 -102c-37 0 -59 9 -82 23l-20 12c-20 12 -40 20 -54 20zM727 0l-68 140h-421l-67 -140h-145l367 726h113
l368 -726h-147zM289 245h319l-160 331z" />
    <glyph glyph-name="Atilde" unicode="&#xe3;" horiz-adv-x="900" 
d="M379 865c-31 0 -65 -22 -92 -57l-51 54c39 65 90 101 148 101c20 0 46 -7 71 -23l22 -14c19 -12 38 -24 59 -24c25 0 52 20 74 56l53 -46c-26 -63 -75 -102 -128 -102c-37 0 -59 9 -82 23l-20 12c-20 12 -40 20 -54 20zM727 0l-68 140h-421l-67 -140h-145l367 726h113
l368 -726h-147zM289 245h319l-160 331z" />
    <glyph glyph-name="AE" unicode="&#xc6;" horiz-adv-x="1243" 
d="M650 103h503v-103h-640v140h-291l-83 -140h-149l440 726h721v-103h-501v-210h408v-101h-408v-209zM513 245v382l-228 -382h228z" />
    <glyph glyph-name="AE" unicode="&#xe6;" horiz-adv-x="1243" 
d="M650 103h503v-103h-640v140h-291l-83 -140h-149l440 726h721v-103h-501v-210h408v-101h-408v-209zM513 245v382l-228 -382h228z" />
    <glyph glyph-name="AEacute" unicode="&#x1fc;" horiz-adv-x="1243" 
d="M899 990l-144 -185h-119l102 185h161zM650 103h503v-103h-640v140h-291l-83 -140h-149l440 726h721v-103h-501v-210h408v-101h-408v-209zM513 245v382l-228 -382h228z" />
    <glyph glyph-name="AEacute" unicode="&#x1fd;" horiz-adv-x="1243" 
d="M899 990l-144 -185h-119l102 185h161zM650 103h503v-103h-640v140h-291l-83 -140h-149l440 726h721v-103h-501v-210h408v-101h-408v-209zM513 245v382l-228 -382h228z" />
    <glyph glyph-name="B" unicode="B" horiz-adv-x="917" 
d="M736 385c68 -22 105 -82 105 -174c0 -136 -97 -211 -271 -211h-450v726h460c150 0 233 -67 233 -187c0 -79 -27 -132 -77 -154zM678 523c0 66 -45 102 -126 102h-295v-204h295c81 0 126 36 126 102zM570 100c85 0 133 42 133 117c0 71 -48 110 -133 110h-313v-227h313z
" />
    <glyph glyph-name="B" unicode="b" horiz-adv-x="917" 
d="M736 385c68 -22 105 -82 105 -174c0 -136 -97 -211 -271 -211h-450v726h460c150 0 233 -67 233 -187c0 -79 -27 -132 -77 -154zM678 523c0 66 -45 102 -126 102h-295v-204h295c81 0 126 36 126 102zM570 100c85 0 133 42 133 117c0 71 -48 110 -133 110h-313v-227h313z
" />
    <glyph glyph-name="C" unicode="C" horiz-adv-x="871" 
d="M531 -12c-285 0 -461 104 -461 375s176 375 461 375c104 0 184 -7 254 -21v-104c-71 14 -152 22 -256 22c-217 0 -318 -77 -318 -272s101 -272 318 -272c105 0 185 8 256 22v-104c-70 -14 -149 -21 -254 -21z" />
    <glyph glyph-name="C" unicode="c" horiz-adv-x="871" 
d="M531 -12c-285 0 -461 104 -461 375s176 375 461 375c104 0 184 -7 254 -21v-104c-71 14 -152 22 -256 22c-217 0 -318 -77 -318 -272s101 -272 318 -272c105 0 185 8 256 22v-104c-70 -14 -149 -21 -254 -21z" />
    <glyph glyph-name="Cacute" unicode="&#x106;" horiz-adv-x="871" 
d="M426 805l102 185h161l-144 -185h-119zM531 -12c-285 0 -461 104 -461 375s176 375 461 375c104 0 184 -7 254 -21v-104c-71 14 -152 22 -256 22c-217 0 -318 -77 -318 -272s101 -272 318 -272c105 0 185 8 256 22v-104c-70 -14 -149 -21 -254 -21z" />
    <glyph glyph-name="Cacute" unicode="&#x107;" horiz-adv-x="871" 
d="M426 805l102 185h161l-144 -185h-119zM531 -12c-285 0 -461 104 -461 375s176 375 461 375c104 0 184 -7 254 -21v-104c-71 14 -152 22 -256 22c-217 0 -318 -77 -318 -272s101 -272 318 -272c105 0 185 8 256 22v-104c-70 -14 -149 -21 -254 -21z" />
    <glyph glyph-name="Ccaron" unicode="&#x10c;" horiz-adv-x="871" 
d="M436 799l-140 188h126l64 -99h7l64 99h126l-139 -188h-108zM531 -12c-285 0 -461 104 -461 375s176 375 461 375c104 0 184 -7 254 -21v-104c-71 14 -152 22 -256 22c-217 0 -318 -77 -318 -272s101 -272 318 -272c105 0 185 8 256 22v-104c-70 -14 -149 -21 -254 -21z
" />
    <glyph glyph-name="Ccaron" unicode="&#x10d;" horiz-adv-x="871" 
d="M436 799l-140 188h126l64 -99h7l64 99h126l-139 -188h-108zM531 -12c-285 0 -461 104 -461 375s176 375 461 375c104 0 184 -7 254 -21v-104c-71 14 -152 22 -256 22c-217 0 -318 -77 -318 -272s101 -272 318 -272c105 0 185 8 256 22v-104c-70 -14 -149 -21 -254 -21z
" />
    <glyph glyph-name="Ccedilla" unicode="&#xc7;" horiz-adv-x="871" 
d="M529 635c-217 0 -318 -77 -318 -272s101 -272 318 -272c105 0 185 8 256 22v-104c-70 -14 -149 -21 -254 -21c-13 0 -26 0 -38 1l-5 -42h44c76 0 120 -46 120 -120c0 -86 -40 -136 -134 -136h-170v82h159c24 0 39 10 39 46c0 45 -18 45 -39 45h-116l22 131
c-215 27 -343 137 -343 368c0 271 176 375 461 375c104 0 184 -7 254 -21v-104c-71 14 -152 22 -256 22z" />
    <glyph glyph-name="Ccedilla" unicode="&#xe7;" horiz-adv-x="871" 
d="M529 635c-217 0 -318 -77 -318 -272s101 -272 318 -272c105 0 185 8 256 22v-104c-70 -14 -149 -21 -254 -21c-13 0 -26 0 -38 1l-5 -42h44c76 0 120 -46 120 -120c0 -86 -40 -136 -134 -136h-170v82h159c24 0 39 10 39 46c0 45 -18 45 -39 45h-116l22 131
c-215 27 -343 137 -343 368c0 271 176 375 461 375c104 0 184 -7 254 -21v-104c-71 14 -152 22 -256 22z" />
    <glyph glyph-name="Ccircumflex" unicode="&#x108;" horiz-adv-x="871" 
d="M296 791l140 188h108l139 -188h-126l-64 100h-7l-64 -100h-126zM531 -12c-285 0 -461 104 -461 375s176 375 461 375c104 0 184 -7 254 -21v-104c-71 14 -152 22 -256 22c-217 0 -318 -77 -318 -272s101 -272 318 -272c105 0 185 8 256 22v-104
c-70 -14 -149 -21 -254 -21z" />
    <glyph glyph-name="Ccircumflex" unicode="&#x109;" horiz-adv-x="871" 
d="M296 791l140 188h108l139 -188h-126l-64 100h-7l-64 -100h-126zM531 -12c-285 0 -461 104 -461 375s176 375 461 375c104 0 184 -7 254 -21v-104c-71 14 -152 22 -256 22c-217 0 -318 -77 -318 -272s101 -272 318 -272c105 0 185 8 256 22v-104
c-70 -14 -149 -21 -254 -21z" />
    <glyph glyph-name="Cdotaccent" unicode="&#x10a;" horiz-adv-x="871" 
d="M490 816c-49 0 -77 19 -77 72s28 75 77 75c50 0 78 -22 78 -75s-28 -72 -78 -72zM531 -12c-285 0 -461 104 -461 375s176 375 461 375c104 0 184 -7 254 -21v-104c-71 14 -152 22 -256 22c-217 0 -318 -77 -318 -272s101 -272 318 -272c105 0 185 8 256 22v-104
c-70 -14 -149 -21 -254 -21z" />
    <glyph glyph-name="Cdotaccent" unicode="&#x10b;" horiz-adv-x="871" 
d="M490 816c-49 0 -77 19 -77 72s28 75 77 75c50 0 78 -22 78 -75s-28 -72 -78 -72zM531 -12c-285 0 -461 104 -461 375s176 375 461 375c104 0 184 -7 254 -21v-104c-71 14 -152 22 -256 22c-217 0 -318 -77 -318 -272s101 -272 318 -272c105 0 185 8 256 22v-104
c-70 -14 -149 -21 -254 -21z" />
    <glyph glyph-name="D" unicode="D" horiz-adv-x="955" 
d="M120 0v726h390c170 0 375 -31 375 -363s-205 -363 -375 -363h-390zM257 103h234c155 0 253 19 253 260c0 240 -97 260 -253 260h-234v-520z" />
    <glyph glyph-name="D" unicode="d" horiz-adv-x="955" 
d="M120 0v726h390c170 0 375 -31 375 -363s-205 -363 -375 -363h-390zM257 103h234c155 0 253 19 253 260c0 240 -97 260 -253 260h-234v-520z" />
    <glyph glyph-name="Eth" unicode="&#xd0;" horiz-adv-x="955" 
d="M510 726c170 0 375 -31 375 -363s-205 -363 -375 -363h-390v316h-94v93h94v317h390zM491 103c155 0 253 19 253 260c0 240 -97 260 -253 260h-234v-214h247v-93h-247v-213h234z" />
    <glyph glyph-name="Eth" unicode="&#xf0;" horiz-adv-x="955" 
d="M510 726c170 0 375 -31 375 -363s-205 -363 -375 -363h-390v316h-94v93h94v317h390zM491 103c155 0 253 19 253 260c0 240 -97 260 -253 260h-234v-214h247v-93h-247v-213h234z" />
    <glyph glyph-name="Dcaron" unicode="&#x10e;" horiz-adv-x="955" 
d="M413 799l-140 188h126l64 -99h7l64 99h126l-139 -188h-108zM120 0v726h390c170 0 375 -31 375 -363s-205 -363 -375 -363h-390zM257 103h234c155 0 253 19 253 260c0 240 -97 260 -253 260h-234v-520z" />
    <glyph glyph-name="Dcaron" unicode="&#x10f;" horiz-adv-x="955" 
d="M413 799l-140 188h126l64 -99h7l64 99h126l-139 -188h-108zM120 0v726h390c170 0 375 -31 375 -363s-205 -363 -375 -363h-390zM257 103h234c155 0 253 19 253 260c0 240 -97 260 -253 260h-234v-520z" />
    <glyph glyph-name="Dcroat" unicode="&#x110;" horiz-adv-x="955" 
d="M510 726c170 0 375 -31 375 -363s-205 -363 -375 -363h-390v316h-94v93h94v317h390zM491 103c155 0 253 19 253 260c0 240 -97 260 -253 260h-234v-214h247v-93h-247v-213h234z" />
    <glyph glyph-name="Dcroat" unicode="&#x111;" horiz-adv-x="955" 
d="M510 726c170 0 375 -31 375 -363s-205 -363 -375 -363h-390v316h-94v93h94v317h390zM491 103c155 0 253 19 253 260c0 240 -97 260 -253 260h-234v-214h247v-93h-247v-213h234z" />
    <glyph glyph-name="E" unicode="E" horiz-adv-x="850" 
d="M257 103h503v-103h-640v726h638v-103h-501v-210h408v-101h-408v-209z" />
    <glyph glyph-name="E" unicode="e" horiz-adv-x="850" 
d="M257 103h503v-103h-640v726h638v-103h-501v-210h408v-101h-408v-209z" />
    <glyph glyph-name="Eacute" unicode="&#xc9;" horiz-adv-x="850" 
d="M643 990l-144 -185h-119l102 185h161zM257 103h503v-103h-640v726h638v-103h-501v-210h408v-101h-408v-209z" />
    <glyph glyph-name="Eacute" unicode="&#xe9;" horiz-adv-x="850" 
d="M643 990l-144 -185h-119l102 185h161zM257 103h503v-103h-640v726h638v-103h-501v-210h408v-101h-408v-209z" />
    <glyph glyph-name="Ebreve" unicode="&#x114;" horiz-adv-x="850" 
d="M434 813c-103 0 -174 57 -180 171h100c6 -54 36 -89 87 -89h6c51 0 82 35 87 89h100c-7 -116 -78 -171 -179 -171h-21zM257 103h503v-103h-640v726h638v-103h-501v-210h408v-101h-408v-209z" />
    <glyph glyph-name="Ebreve" unicode="&#x115;" horiz-adv-x="850" 
d="M434 813c-103 0 -174 57 -180 171h100c6 -54 36 -89 87 -89h6c51 0 82 35 87 89h100c-7 -116 -78 -171 -179 -171h-21zM257 103h503v-103h-640v726h638v-103h-501v-210h408v-101h-408v-209z" />
    <glyph glyph-name="Ecaron" unicode="&#x11a;" horiz-adv-x="850" 
d="M498 799h-108l-140 188h126l64 -99h7l64 99h126zM257 103h503v-103h-640v726h638v-103h-501v-210h408v-101h-408v-209z" />
    <glyph glyph-name="Ecaron" unicode="&#x11b;" horiz-adv-x="850" 
d="M498 799h-108l-140 188h126l64 -99h7l64 99h126zM257 103h503v-103h-640v726h638v-103h-501v-210h408v-101h-408v-209z" />
    <glyph glyph-name="Ecircumflex" unicode="&#xca;" horiz-adv-x="850" 
d="M440 891l-64 -100h-126l140 188h108l139 -188h-126l-64 100h-7zM257 103h503v-103h-640v726h638v-103h-501v-210h408v-101h-408v-209z" />
    <glyph glyph-name="Ecircumflex" unicode="&#xea;" horiz-adv-x="850" 
d="M440 891l-64 -100h-126l140 188h108l139 -188h-126l-64 100h-7zM257 103h503v-103h-640v726h638v-103h-501v-210h408v-101h-408v-209z" />
    <glyph glyph-name="Edieresis" unicode="&#xcb;" horiz-adv-x="850" 
d="M333 815c-47 0 -72 20 -72 73s25 75 72 75c45 0 71 -22 71 -75s-26 -73 -71 -73zM554 815c-46 0 -71 20 -71 73s25 75 71 75s72 -22 72 -75s-26 -73 -72 -73zM257 103h503v-103h-640v726h638v-103h-501v-210h408v-101h-408v-209z" />
    <glyph glyph-name="Edieresis" unicode="&#xeb;" horiz-adv-x="850" 
d="M333 815c-47 0 -72 20 -72 73s25 75 72 75c45 0 71 -22 71 -75s-26 -73 -71 -73zM554 815c-46 0 -71 20 -71 73s25 75 71 75s72 -22 72 -75s-26 -73 -72 -73zM257 103h503v-103h-640v726h638v-103h-501v-210h408v-101h-408v-209z" />
    <glyph glyph-name="Edotaccent" unicode="&#x116;" horiz-adv-x="850" 
d="M444 816c-49 0 -77 19 -77 72s28 75 77 75c50 0 78 -22 78 -75s-28 -72 -78 -72zM257 103h503v-103h-640v726h638v-103h-501v-210h408v-101h-408v-209z" />
    <glyph glyph-name="Edotaccent" unicode="&#x117;" horiz-adv-x="850" 
d="M444 816c-49 0 -77 19 -77 72s28 75 77 75c50 0 78 -22 78 -75s-28 -72 -78 -72zM257 103h503v-103h-640v726h638v-103h-501v-210h408v-101h-408v-209z" />
    <glyph glyph-name="Egrave" unicode="&#xc8;" horiz-adv-x="850" 
d="M520 805h-120l-143 185h161zM257 103h503v-103h-640v726h638v-103h-501v-210h408v-101h-408v-209z" />
    <glyph glyph-name="Egrave" unicode="&#xe8;" horiz-adv-x="850" 
d="M520 805h-120l-143 185h161zM257 103h503v-103h-640v726h638v-103h-501v-210h408v-101h-408v-209z" />
    <glyph glyph-name="Emacron" unicode="&#x112;" horiz-adv-x="850" 
d="M637 931v-88h-386v88h386zM257 103h503v-103h-640v726h638v-103h-501v-210h408v-101h-408v-209z" />
    <glyph glyph-name="Emacron" unicode="&#x113;" horiz-adv-x="850" 
d="M637 931v-88h-386v88h386zM257 103h503v-103h-640v726h638v-103h-501v-210h408v-101h-408v-209z" />
    <glyph glyph-name="Eogonek" unicode="&#x118;" horiz-adv-x="850" 
d="M760 0c-94 -49 -146 -116 -146 -171c0 -25 15 -52 39 -52h63v-86h-78c-81 0 -131 44 -131 122c0 57 31 121 103 187h-490v726h638v-103h-501v-210h408v-101h-408v-209h503v-103z" />
    <glyph glyph-name="Eogonek" unicode="&#x119;" horiz-adv-x="850" 
d="M760 0c-94 -49 -146 -116 -146 -171c0 -25 15 -52 39 -52h63v-86h-78c-81 0 -131 44 -131 122c0 57 31 121 103 187h-490v726h638v-103h-501v-210h408v-101h-408v-209h503v-103z" />
    <glyph glyph-name="F" unicode="F" horiz-adv-x="791" 
d="M751 623h-494v-210h408v-101h-408v-312h-137v726h631v-103z" />
    <glyph glyph-name="F" unicode="f" horiz-adv-x="791" 
d="M751 623h-494v-210h408v-101h-408v-312h-137v726h631v-103z" />
    <glyph glyph-name="G" unicode="G" horiz-adv-x="926" 
d="M700 346h136v-331c-83 -15 -200 -28 -294 -28c-315 0 -472 104 -472 369c0 278 186 382 461 382c110 0 195 -5 269 -16v-104c-75 11 -161 17 -270 17c-208 0 -319 -77 -319 -282c0 -202 105 -262 333 -262c52 -1 105 3 156 11v244z" />
    <glyph glyph-name="G" unicode="g" horiz-adv-x="926" 
d="M700 346h136v-331c-83 -15 -200 -28 -294 -28c-315 0 -472 104 -472 369c0 278 186 382 461 382c110 0 195 -5 269 -16v-104c-75 11 -161 17 -270 17c-208 0 -319 -77 -319 -282c0 -202 105 -262 333 -262c52 -1 105 3 156 11v244z" />
    <glyph glyph-name="Gbreve" unicode="&#x11e;" horiz-adv-x="926" 
d="M510 813c-103 0 -174 57 -180 171h100c6 -54 36 -89 87 -89h6c51 0 82 35 87 89h100c-7 -116 -78 -171 -179 -171h-21zM700 346h136v-331c-83 -15 -200 -28 -294 -28c-315 0 -472 104 -472 369c0 278 186 382 461 382c110 0 195 -5 269 -16v-104c-75 11 -161 17 -270 17
c-208 0 -319 -77 -319 -282c0 -202 105 -262 333 -262c52 -1 105 3 156 11v244z" />
    <glyph glyph-name="Gbreve" unicode="&#x11f;" horiz-adv-x="926" 
d="M510 813c-103 0 -174 57 -180 171h100c6 -54 36 -89 87 -89h6c51 0 82 35 87 89h100c-7 -116 -78 -171 -179 -171h-21zM700 346h136v-331c-83 -15 -200 -28 -294 -28c-315 0 -472 104 -472 369c0 278 186 382 461 382c110 0 195 -5 269 -16v-104c-75 11 -161 17 -270 17
c-208 0 -319 -77 -319 -282c0 -202 105 -262 333 -262c52 -1 105 3 156 11v244z" />
    <glyph glyph-name="Gcircumflex" unicode="&#x11c;" horiz-adv-x="926" 
d="M516 891l-64 -100h-126l140 188h108l139 -188h-126l-64 100h-7zM700 346h136v-331c-83 -15 -200 -28 -294 -28c-315 0 -472 104 -472 369c0 278 186 382 461 382c110 0 195 -5 269 -16v-104c-75 11 -161 17 -270 17c-208 0 -319 -77 -319 -282c0 -202 105 -262 333 -262
c52 -1 105 3 156 11v244z" />
    <glyph glyph-name="Gcircumflex" unicode="&#x11d;" horiz-adv-x="926" 
d="M516 891l-64 -100h-126l140 188h108l139 -188h-126l-64 100h-7zM700 346h136v-331c-83 -15 -200 -28 -294 -28c-315 0 -472 104 -472 369c0 278 186 382 461 382c110 0 195 -5 269 -16v-104c-75 11 -161 17 -270 17c-208 0 -319 -77 -319 -282c0 -202 105 -262 333 -262
c52 -1 105 3 156 11v244z" />
    <glyph glyph-name="uni0122" unicode="&#x122;" horiz-adv-x="926" 
d="M700 346h136v-331c-83 -15 -200 -28 -294 -28c-315 0 -472 104 -472 369c0 278 186 382 461 382c110 0 195 -5 269 -16v-104c-75 11 -161 17 -270 17c-208 0 -319 -77 -319 -282c0 -202 105 -262 333 -262c52 -1 105 3 156 11v244zM419 -336l29 246h127l-60 -246h-96z
" />
    <glyph glyph-name="uni0122" unicode="&#x123;" horiz-adv-x="926" 
d="M700 346h136v-331c-83 -15 -200 -28 -294 -28c-315 0 -472 104 -472 369c0 278 186 382 461 382c110 0 195 -5 269 -16v-104c-75 11 -161 17 -270 17c-208 0 -319 -77 -319 -282c0 -202 105 -262 333 -262c52 -1 105 3 156 11v244zM419 -336l29 246h127l-60 -246h-96z
" />
    <glyph glyph-name="Gdotaccent" unicode="&#x120;" horiz-adv-x="926" 
d="M520 816c-49 0 -77 19 -77 72s28 75 77 75c50 0 78 -22 78 -75s-28 -72 -78 -72zM700 346h136v-331c-83 -15 -200 -28 -294 -28c-315 0 -472 104 -472 369c0 278 186 382 461 382c110 0 195 -5 269 -16v-104c-75 11 -161 17 -270 17c-208 0 -319 -77 -319 -282
c0 -202 105 -262 333 -262c52 -1 105 3 156 11v244z" />
    <glyph glyph-name="Gdotaccent" unicode="&#x121;" horiz-adv-x="926" 
d="M520 816c-49 0 -77 19 -77 72s28 75 77 75c50 0 78 -22 78 -75s-28 -72 -78 -72zM700 346h136v-331c-83 -15 -200 -28 -294 -28c-315 0 -472 104 -472 369c0 278 186 382 461 382c110 0 195 -5 269 -16v-104c-75 11 -161 17 -270 17c-208 0 -319 -77 -319 -282
c0 -202 105 -262 333 -262c52 -1 105 3 156 11v244z" />
    <glyph glyph-name="H" unicode="H" horiz-adv-x="989" 
d="M732 726h137v-726h-137v329h-475v-329h-137v726h137v-294h475v294z" />
    <glyph glyph-name="H" unicode="h" horiz-adv-x="989" 
d="M732 726h137v-726h-137v329h-475v-329h-137v726h137v-294h475v294z" />
    <glyph glyph-name="Hbar" unicode="&#x126;" horiz-adv-x="989" 
d="M965 593v-93h-96v-500h-137v329h-475v-329h-137v500h-95v93h95v133h137v-133h475v133h137v-133h96zM732 432v68h-475v-68h475z" />
    <glyph glyph-name="Hbar" unicode="&#x127;" horiz-adv-x="989" 
d="M965 593v-93h-96v-500h-137v329h-475v-329h-137v500h-95v93h95v133h137v-133h475v133h137v-133h96zM732 432v68h-475v-68h475z" />
    <glyph glyph-name="Hcircumflex" unicode="&#x124;" horiz-adv-x="989" 
d="M491 891l-64 -100h-126l140 188h108l139 -188h-126l-64 100h-7zM732 726h137v-726h-137v329h-475v-329h-137v726h137v-294h475v294z" />
    <glyph glyph-name="Hcircumflex" unicode="&#x125;" horiz-adv-x="989" 
d="M491 891l-64 -100h-126l140 188h108l139 -188h-126l-64 100h-7zM732 726h137v-726h-137v329h-475v-329h-137v726h137v-294h475v294z" />
    <glyph glyph-name="I" unicode="I" horiz-adv-x="377" 
d="M120 0v726h137v-726h-137z" />
    <glyph glyph-name="I" unicode="i" horiz-adv-x="377" 
d="M120 0v726h137v-726h-137z" />
    <glyph glyph-name="IJ" unicode="&#x132;" horiz-adv-x="1136" 
d="M120 0v726h137v-726h-137zM664 -12c-82 0 -148 6 -217 23v105c65 -18 141 -25 208 -25c135 0 235 30 235 208v427h136v-433c0 -239 -127 -305 -362 -305z" />
    <glyph glyph-name="IJ" unicode="&#x133;" horiz-adv-x="1136" 
d="M120 0v726h137v-726h-137zM664 -12c-82 0 -148 6 -217 23v105c65 -18 141 -25 208 -25c135 0 235 30 235 208v427h136v-433c0 -239 -127 -305 -362 -305z" />
    <glyph glyph-name="Iacute" unicode="&#xcd;" horiz-adv-x="377" 
d="M125 805l102 185h161l-144 -185h-119zM120 0v726h137v-726h-137z" />
    <glyph glyph-name="Iacute" unicode="&#xed;" horiz-adv-x="377" 
d="M125 805l102 185h161l-144 -185h-119zM120 0v726h137v-726h-137z" />
    <glyph glyph-name="Ibreve" unicode="&#x12c;" horiz-adv-x="377" 
d="M179 813c-103 0 -174 57 -180 171h100c6 -54 36 -89 87 -89h6c51 0 82 35 87 89h100c-7 -116 -78 -171 -179 -171h-21zM120 0v726h137v-726h-137z" />
    <glyph glyph-name="Ibreve" unicode="&#x12d;" horiz-adv-x="377" 
d="M179 813c-103 0 -174 57 -180 171h100c6 -54 36 -89 87 -89h6c51 0 82 35 87 89h100c-7 -116 -78 -171 -179 -171h-21zM120 0v726h137v-726h-137z" />
    <glyph glyph-name="Icircumflex" unicode="&#xce;" horiz-adv-x="377" 
d="M-5 791l140 188h108l139 -188h-126l-64 100h-7l-64 -100h-126zM120 0v726h137v-726h-137z" />
    <glyph glyph-name="Icircumflex" unicode="&#xee;" horiz-adv-x="377" 
d="M-5 791l140 188h108l139 -188h-126l-64 100h-7l-64 -100h-126zM120 0v726h137v-726h-137z" />
    <glyph glyph-name="Idieresis" unicode="&#xcf;" horiz-adv-x="377" 
d="M78 815c-47 0 -72 20 -72 73s25 75 72 75c45 0 71 -22 71 -75s-26 -73 -71 -73zM299 815c-46 0 -71 20 -71 73s25 75 71 75s72 -22 72 -75s-26 -73 -72 -73zM120 0v726h137v-726h-137z" />
    <glyph glyph-name="Idieresis" unicode="&#xef;" horiz-adv-x="377" 
d="M78 815c-47 0 -72 20 -72 73s25 75 72 75c45 0 71 -22 71 -75s-26 -73 -71 -73zM299 815c-46 0 -71 20 -71 73s25 75 71 75s72 -22 72 -75s-26 -73 -72 -73zM120 0v726h137v-726h-137z" />
    <glyph glyph-name="Idotaccent" unicode="&#x130;" horiz-adv-x="377" 
d="M189 816c-49 0 -77 19 -77 72s28 75 77 75c50 0 78 -22 78 -75s-28 -72 -78 -72zM120 0v726h137v-726h-137z" />
    <glyph glyph-name="Igrave" unicode="&#xcc;" horiz-adv-x="377" 
d="M145 805l-143 185h161l102 -185h-120zM120 0v726h137v-726h-137z" />
    <glyph glyph-name="Igrave" unicode="&#xec;" horiz-adv-x="377" 
d="M145 805l-143 185h161l102 -185h-120zM120 0v726h137v-726h-137z" />
    <glyph glyph-name="Imacron" unicode="&#x12a;" horiz-adv-x="377" 
d="M-4 843v88h386v-88h-386zM120 0v726h137v-726h-137z" />
    <glyph glyph-name="Imacron" unicode="&#x12b;" horiz-adv-x="377" 
d="M-4 843v88h386v-88h-386zM120 0v726h137v-726h-137z" />
    <glyph glyph-name="Iogonek" unicode="&#x12e;" horiz-adv-x="377" 
d="M257 0c-94 -49 -146 -116 -146 -171c0 -25 15 -52 39 -52h63v-86h-78c-81 0 -131 44 -131 122c0 60 34 128 114 197h2v716h137v-726z" />
    <glyph glyph-name="Iogonek" unicode="&#x12f;" horiz-adv-x="377" 
d="M257 0c-94 -49 -146 -116 -146 -171c0 -25 15 -52 39 -52h63v-86h-78c-81 0 -131 44 -131 122c0 60 34 128 114 197h2v716h137v-726z" />
    <glyph glyph-name="Itilde" unicode="&#x128;" horiz-adv-x="377" 
d="M26 808l-51 54c39 65 90 101 148 101c20 0 46 -7 71 -23l22 -14c19 -12 38 -24 59 -24c25 0 52 20 74 56l53 -46c-26 -63 -75 -102 -128 -102c-37 0 -59 9 -82 23l-20 12c-20 12 -40 20 -54 20c-31 0 -65 -22 -92 -57zM120 0v726h137v-726h-137z" />
    <glyph glyph-name="Itilde" unicode="&#x129;" horiz-adv-x="377" 
d="M26 808l-51 54c39 65 90 101 148 101c20 0 46 -7 71 -23l22 -14c19 -12 38 -24 59 -24c25 0 52 20 74 56l53 -46c-26 -63 -75 -102 -128 -102c-37 0 -59 9 -82 23l-20 12c-20 12 -40 20 -54 20c-31 0 -65 -22 -92 -57zM120 0v726h137v-726h-137z" />
    <glyph glyph-name="J" unicode="J" horiz-adv-x="759" 
d="M287 -12c-82 0 -148 6 -217 23v105c65 -18 141 -25 208 -25c135 0 235 30 235 208v427h136v-433c0 -239 -127 -305 -362 -305z" />
    <glyph glyph-name="J" unicode="j" horiz-adv-x="759" 
d="M287 -12c-82 0 -148 6 -217 23v105c65 -18 141 -25 208 -25c135 0 235 30 235 208v427h136v-433c0 -239 -127 -305 -362 -305z" />
    <glyph glyph-name="uni00A40301" horiz-adv-x="759" 
d="M517 805l102 185h161l-144 -185h-119zM287 -12c-82 0 -148 6 -217 23v105c65 -18 141 -25 208 -25c135 0 235 30 235 208v427h136v-433c0 -239 -127 -305 -362 -305z" />
    <glyph glyph-name="Jcircumflex" unicode="&#x134;" horiz-adv-x="759" 
d="M387 791l140 188h108l139 -188h-126l-64 100h-7l-64 -100h-126zM287 -12c-82 0 -148 6 -217 23v105c65 -18 141 -25 208 -25c135 0 235 30 235 208v427h136v-433c0 -239 -127 -305 -362 -305z" />
    <glyph glyph-name="Jcircumflex" unicode="&#x135;" horiz-adv-x="759" 
d="M387 791l140 188h108l139 -188h-126l-64 100h-7l-64 -100h-126zM287 -12c-82 0 -148 6 -217 23v105c65 -18 141 -25 208 -25c135 0 235 30 235 208v427h136v-433c0 -239 -127 -305 -362 -305z" />
    <glyph glyph-name="K" unicode="K" horiz-adv-x="877" 
d="M689 0l-308 345l-124 -104v-241h-137v726h137v-342l405 342h174l-361 -302l382 -424h-168z" />
    <glyph glyph-name="K" unicode="k" horiz-adv-x="877" 
d="M689 0l-308 345l-124 -104v-241h-137v726h137v-342l405 342h174l-361 -302l382 -424h-168z" />
    <glyph glyph-name="uni0136" unicode="&#x136;" horiz-adv-x="877" 
d="M475 424l382 -424h-168l-308 345l-124 -104v-241h-137v726h137v-342l405 342h174zM353 -336l29 246h127l-60 -246h-96z" />
    <glyph glyph-name="uni0136" unicode="&#x137;" horiz-adv-x="877" 
d="M475 424l382 -424h-168l-308 345l-124 -104v-241h-137v726h137v-342l405 342h174zM353 -336l29 246h127l-60 -246h-96z" />
    <glyph glyph-name="L" unicode="L" horiz-adv-x="777" 
d="M257 103h480v-103h-617v726h137v-623z" />
    <glyph glyph-name="L" unicode="l" horiz-adv-x="777" 
d="M257 103h480v-103h-617v726h137v-623z" />
    <glyph glyph-name="Lacute" unicode="&#x139;" horiz-adv-x="777" 
d="M388 990l-144 -185h-119l102 185h161zM257 103h480v-103h-617v726h137v-623z" />
    <glyph glyph-name="Lacute" unicode="&#x13a;" horiz-adv-x="777" 
d="M388 990l-144 -185h-119l102 185h161zM257 103h480v-103h-617v726h137v-623z" />
    <glyph glyph-name="Lcaron" unicode="&#x13d;" horiz-adv-x="777" 
d="M257 103h480v-103h-617v726h137v-623zM563 726l-60 -246h-96l29 246h127z" />
    <glyph glyph-name="Lcaron" unicode="&#x13e;" horiz-adv-x="777" 
d="M257 103h480v-103h-617v726h137v-623zM563 726l-60 -246h-96l29 246h127z" />
    <glyph glyph-name="uni013B" unicode="&#x13b;" horiz-adv-x="777" 
d="M257 103h480v-103h-617v726h137v-623zM370 -336l29 246h127l-60 -246h-96z" />
    <glyph glyph-name="uni013B" unicode="&#x13c;" horiz-adv-x="777" 
d="M257 103h480v-103h-617v726h137v-623zM370 -336l29 246h127l-60 -246h-96z" />
    <glyph glyph-name="Ldot" unicode="&#x13f;" horiz-adv-x="777" 
d="M257 103h480v-103h-617v726h137v-623zM569 335c-49 0 -77 23 -77 76s28 76 77 76c51 0 78 -23 78 -76s-28 -76 -78 -76z" />
    <glyph glyph-name="Ldot" unicode="&#x140;" horiz-adv-x="777" 
d="M257 103h480v-103h-617v726h137v-623zM569 335c-49 0 -77 23 -77 76s28 76 77 76c51 0 78 -23 78 -76s-28 -76 -78 -76z" />
    <glyph glyph-name="Lslash" unicode="&#x141;" horiz-adv-x="777" 
d="M257 103h480v-103h-617v260l-101 -64v110l101 64v356h137v-269l115 73v-111l-115 -73v-243z" />
    <glyph glyph-name="Lslash" unicode="&#x142;" horiz-adv-x="777" 
d="M257 103h480v-103h-617v260l-101 -64v110l101 64v356h137v-269l115 73v-111l-115 -73v-243z" />
    <glyph glyph-name="M" unicode="M" horiz-adv-x="1148" 
d="M905 726h123v-726h-133v485l-263 -485h-108l-271 483v-483h-133v726h126l334 -596z" />
    <glyph glyph-name="M" unicode="m" horiz-adv-x="1148" 
d="M905 726h123v-726h-133v485l-263 -485h-108l-271 483v-483h-133v726h126l334 -596z" />
    <glyph glyph-name="N" unicode="N" horiz-adv-x="1010" 
d="M757 726h133v-726h-122l-515 541v-541h-133v726h129l508 -536v536z" />
    <glyph glyph-name="N" unicode="n" horiz-adv-x="1010" 
d="M757 726h133v-726h-122l-515 541v-541h-133v726h129l508 -536v536z" />
    <glyph glyph-name="Nacute" unicode="&#x143;" horiz-adv-x="1010" 
d="M712 990l-144 -185h-119l102 185h161zM757 726h133v-726h-122l-515 541v-541h-133v726h129l508 -536v536z" />
    <glyph glyph-name="Nacute" unicode="&#x144;" horiz-adv-x="1010" 
d="M712 990l-144 -185h-119l102 185h161zM757 726h133v-726h-122l-515 541v-541h-133v726h129l508 -536v536z" />
    <glyph glyph-name="Ncaron" unicode="&#x147;" horiz-adv-x="1010" 
d="M567 799h-108l-140 188h126l64 -99h7l64 99h126zM757 726h133v-726h-122l-515 541v-541h-133v726h129l508 -536v536z" />
    <glyph glyph-name="Ncaron" unicode="&#x148;" horiz-adv-x="1010" 
d="M567 799h-108l-140 188h126l64 -99h7l64 99h126zM757 726h133v-726h-122l-515 541v-541h-133v726h129l508 -536v536z" />
    <glyph glyph-name="uni0145" unicode="&#x145;" horiz-adv-x="1010" 
d="M757 726h133v-726h-122l-515 541v-541h-133v726h129l508 -536v536zM427 -336l29 246h127l-60 -246h-96z" />
    <glyph glyph-name="uni0145" unicode="&#x146;" horiz-adv-x="1010" 
d="M757 726h133v-726h-122l-515 541v-541h-133v726h129l508 -536v536zM427 -336l29 246h127l-60 -246h-96z" />
    <glyph glyph-name="Eng" unicode="&#x14a;" horiz-adv-x="1010" 
d="M757 726h133v-640c0 -215 -55 -318 -260 -318c-24 0 -50 2 -78 5v104c25 -4 47 -6 67 -6c97 0 127 44 135 143l-501 527v-541h-133v726h129l508 -536v536z" />
    <glyph glyph-name="Eng" unicode="&#x14b;" horiz-adv-x="1010" 
d="M757 726h133v-640c0 -215 -55 -318 -260 -318c-24 0 -50 2 -78 5v104c25 -4 47 -6 67 -6c97 0 127 44 135 143l-501 527v-541h-133v726h129l508 -536v536z" />
    <glyph glyph-name="Ntilde" unicode="&#xd1;" horiz-adv-x="1010" 
d="M442 865c-31 0 -65 -22 -92 -57l-51 54c39 65 90 101 148 101c20 0 46 -7 71 -23l22 -14c19 -12 38 -24 59 -24c25 0 52 20 74 56l53 -46c-26 -63 -75 -102 -128 -102c-37 0 -59 9 -82 23l-20 12c-20 12 -40 20 -54 20zM757 726h133v-726h-122l-515 541v-541h-133v726
h129l508 -536v536z" />
    <glyph glyph-name="Ntilde" unicode="&#xf1;" horiz-adv-x="1010" 
d="M442 865c-31 0 -65 -22 -92 -57l-51 54c39 65 90 101 148 101c20 0 46 -7 71 -23l22 -14c19 -12 38 -24 59 -24c25 0 52 20 74 56l53 -46c-26 -63 -75 -102 -128 -102c-37 0 -59 9 -82 23l-20 12c-20 12 -40 20 -54 20zM757 726h133v-726h-122l-515 541v-541h-133v726
h129l508 -536v536z" />
    <glyph glyph-name="O" unicode="O" horiz-adv-x="999" 
d="M500 -12c-322 0 -430 165 -430 375c0 209 112 375 430 375c322 0 429 -166 429 -375c0 -210 -106 -375 -429 -375zM500 100c198 0 288 87 288 263s-90 263 -288 263c-192 0 -289 -87 -289 -263c0 -177 91 -263 289 -263z" />
    <glyph glyph-name="O" unicode="o" horiz-adv-x="999" 
d="M500 -12c-322 0 -430 165 -430 375c0 209 112 375 430 375c322 0 429 -166 429 -375c0 -210 -106 -375 -429 -375zM500 100c198 0 288 87 288 263s-90 263 -288 263c-192 0 -289 -87 -289 -263c0 -177 91 -263 289 -263z" />
    <glyph glyph-name="Oacute" unicode="&#xd3;" horiz-adv-x="999" 
d="M435 805l102 185h161l-144 -185h-119zM500 -12c-322 0 -430 165 -430 375c0 209 112 375 430 375c322 0 429 -166 429 -375c0 -210 -106 -375 -429 -375zM500 100c198 0 288 87 288 263s-90 263 -288 263c-192 0 -289 -87 -289 -263c0 -177 91 -263 289 -263z" />
    <glyph glyph-name="Oacute" unicode="&#xf3;" horiz-adv-x="999" 
d="M435 805l102 185h161l-144 -185h-119zM500 -12c-322 0 -430 165 -430 375c0 209 112 375 430 375c322 0 429 -166 429 -375c0 -210 -106 -375 -429 -375zM500 100c198 0 288 87 288 263s-90 263 -288 263c-192 0 -289 -87 -289 -263c0 -177 91 -263 289 -263z" />
    <glyph glyph-name="Obreve" unicode="&#x14e;" horiz-adv-x="999" 
d="M489 813c-103 0 -174 57 -180 171h100c6 -54 36 -89 87 -89h6c51 0 82 35 87 89h100c-7 -116 -78 -171 -179 -171h-21zM500 -12c-322 0 -430 165 -430 375c0 209 112 375 430 375c322 0 429 -166 429 -375c0 -210 -106 -375 -429 -375zM500 100c198 0 288 87 288 263
s-90 263 -288 263c-192 0 -289 -87 -289 -263c0 -177 91 -263 289 -263z" />
    <glyph glyph-name="Obreve" unicode="&#x14f;" horiz-adv-x="999" 
d="M489 813c-103 0 -174 57 -180 171h100c6 -54 36 -89 87 -89h6c51 0 82 35 87 89h100c-7 -116 -78 -171 -179 -171h-21zM500 -12c-322 0 -430 165 -430 375c0 209 112 375 430 375c322 0 429 -166 429 -375c0 -210 -106 -375 -429 -375zM500 100c198 0 288 87 288 263
s-90 263 -288 263c-192 0 -289 -87 -289 -263c0 -177 91 -263 289 -263z" />
    <glyph glyph-name="Ocircumflex" unicode="&#xd4;" horiz-adv-x="999" 
d="M305 791l140 188h108l139 -188h-126l-64 100h-7l-64 -100h-126zM500 -12c-322 0 -430 165 -430 375c0 209 112 375 430 375c322 0 429 -166 429 -375c0 -210 -106 -375 -429 -375zM500 100c198 0 288 87 288 263s-90 263 -288 263c-192 0 -289 -87 -289 -263
c0 -177 91 -263 289 -263z" />
    <glyph glyph-name="Ocircumflex" unicode="&#xf4;" horiz-adv-x="999" 
d="M305 791l140 188h108l139 -188h-126l-64 100h-7l-64 -100h-126zM500 -12c-322 0 -430 165 -430 375c0 209 112 375 430 375c322 0 429 -166 429 -375c0 -210 -106 -375 -429 -375zM500 100c198 0 288 87 288 263s-90 263 -288 263c-192 0 -289 -87 -289 -263
c0 -177 91 -263 289 -263z" />
    <glyph glyph-name="Odieresis" unicode="&#xd6;" horiz-adv-x="999" 
d="M388 815c-47 0 -72 20 -72 73s25 75 72 75c45 0 71 -22 71 -75s-26 -73 -71 -73zM609 815c-46 0 -71 20 -71 73s25 75 71 75s72 -22 72 -75s-26 -73 -72 -73zM500 -12c-322 0 -430 165 -430 375c0 209 112 375 430 375c322 0 429 -166 429 -375
c0 -210 -106 -375 -429 -375zM500 100c198 0 288 87 288 263s-90 263 -288 263c-192 0 -289 -87 -289 -263c0 -177 91 -263 289 -263z" />
    <glyph glyph-name="Odieresis" unicode="&#xf6;" horiz-adv-x="999" 
d="M388 815c-47 0 -72 20 -72 73s25 75 72 75c45 0 71 -22 71 -75s-26 -73 -71 -73zM609 815c-46 0 -71 20 -71 73s25 75 71 75s72 -22 72 -75s-26 -73 -72 -73zM500 -12c-322 0 -430 165 -430 375c0 209 112 375 430 375c322 0 429 -166 429 -375
c0 -210 -106 -375 -429 -375zM500 100c198 0 288 87 288 263s-90 263 -288 263c-192 0 -289 -87 -289 -263c0 -177 91 -263 289 -263z" />
    <glyph glyph-name="Ograve" unicode="&#xd2;" horiz-adv-x="999" 
d="M455 805l-143 185h161l102 -185h-120zM500 -12c-322 0 -430 165 -430 375c0 209 112 375 430 375c322 0 429 -166 429 -375c0 -210 -106 -375 -429 -375zM500 100c198 0 288 87 288 263s-90 263 -288 263c-192 0 -289 -87 -289 -263c0 -177 91 -263 289 -263z" />
    <glyph glyph-name="Ograve" unicode="&#xf2;" horiz-adv-x="999" 
d="M455 805l-143 185h161l102 -185h-120zM500 -12c-322 0 -430 165 -430 375c0 209 112 375 430 375c322 0 429 -166 429 -375c0 -210 -106 -375 -429 -375zM500 100c198 0 288 87 288 263s-90 263 -288 263c-192 0 -289 -87 -289 -263c0 -177 91 -263 289 -263z" />
    <glyph glyph-name="Ohungarumlaut" unicode="&#x150;" horiz-adv-x="999" 
d="M306 805l80 185h148l-114 -185h-114zM524 805l81 185h147l-114 -185h-114zM500 -12c-322 0 -430 165 -430 375c0 209 112 375 430 375c322 0 429 -166 429 -375c0 -210 -106 -375 -429 -375zM500 100c198 0 288 87 288 263s-90 263 -288 263c-192 0 -289 -87 -289 -263
c0 -177 91 -263 289 -263z" />
    <glyph glyph-name="Ohungarumlaut" unicode="&#x151;" horiz-adv-x="999" 
d="M306 805l80 185h148l-114 -185h-114zM524 805l81 185h147l-114 -185h-114zM500 -12c-322 0 -430 165 -430 375c0 209 112 375 430 375c322 0 429 -166 429 -375c0 -210 -106 -375 -429 -375zM500 100c198 0 288 87 288 263s-90 263 -288 263c-192 0 -289 -87 -289 -263
c0 -177 91 -263 289 -263z" />
    <glyph glyph-name="Omacron" unicode="&#x14c;" horiz-adv-x="999" 
d="M306 843v88h386v-88h-386zM500 -12c-322 0 -430 165 -430 375c0 209 112 375 430 375c322 0 429 -166 429 -375c0 -210 -106 -375 -429 -375zM500 100c198 0 288 87 288 263s-90 263 -288 263c-192 0 -289 -87 -289 -263c0 -177 91 -263 289 -263z" />
    <glyph glyph-name="Omacron" unicode="&#x14d;" horiz-adv-x="999" 
d="M306 843v88h386v-88h-386zM500 -12c-322 0 -430 165 -430 375c0 209 112 375 430 375c322 0 429 -166 429 -375c0 -210 -106 -375 -429 -375zM500 100c198 0 288 87 288 263s-90 263 -288 263c-192 0 -289 -87 -289 -263c0 -177 91 -263 289 -263z" />
    <glyph glyph-name="Oslash" unicode="&#xd8;" horiz-adv-x="999" 
d="M970 674l-104 -82c45 -63 63 -142 63 -229c0 -210 -106 -375 -429 -375c-134 0 -231 28 -298 77l-112 -89l-63 78l104 82c-43 63 -61 141 -61 227c0 209 112 375 430 375c133 0 230 -28 297 -76l112 88zM211 363c0 -56 9 -103 28 -142l454 359c-46 31 -110 46 -193 46
c-192 0 -289 -87 -289 -263zM788 363c0 57 -10 105 -29 144l-454 -360c47 -32 111 -47 195 -47c198 0 288 87 288 263z" />
    <glyph glyph-name="Oslash" unicode="&#xf8;" horiz-adv-x="999" 
d="M970 674l-104 -82c45 -63 63 -142 63 -229c0 -210 -106 -375 -429 -375c-134 0 -231 28 -298 77l-112 -89l-63 78l104 82c-43 63 -61 141 -61 227c0 209 112 375 430 375c133 0 230 -28 297 -76l112 88zM211 363c0 -56 9 -103 28 -142l454 359c-46 31 -110 46 -193 46
c-192 0 -289 -87 -289 -263zM788 363c0 57 -10 105 -29 144l-454 -360c47 -32 111 -47 195 -47c198 0 288 87 288 263z" />
    <glyph glyph-name="Oslashacute" unicode="&#x1fe;" horiz-adv-x="999" 
d="M698 990l-144 -185h-119l102 185h161zM970 674l-104 -82c45 -63 63 -142 63 -229c0 -210 -106 -375 -429 -375c-134 0 -231 28 -298 77l-112 -89l-63 78l104 82c-43 63 -61 141 -61 227c0 209 112 375 430 375c133 0 230 -28 297 -76l112 88zM211 363
c0 -56 9 -103 28 -142l454 359c-46 31 -110 46 -193 46c-192 0 -289 -87 -289 -263zM788 363c0 57 -10 105 -29 144l-454 -360c47 -32 111 -47 195 -47c198 0 288 87 288 263z" />
    <glyph glyph-name="Oslashacute" unicode="&#x1ff;" horiz-adv-x="999" 
d="M698 990l-144 -185h-119l102 185h161zM970 674l-104 -82c45 -63 63 -142 63 -229c0 -210 -106 -375 -429 -375c-134 0 -231 28 -298 77l-112 -89l-63 78l104 82c-43 63 -61 141 -61 227c0 209 112 375 430 375c133 0 230 -28 297 -76l112 88zM211 363
c0 -56 9 -103 28 -142l454 359c-46 31 -110 46 -193 46c-192 0 -289 -87 -289 -263zM788 363c0 57 -10 105 -29 144l-454 -360c47 -32 111 -47 195 -47c198 0 288 87 288 263z" />
    <glyph glyph-name="Otilde" unicode="&#xd5;" horiz-adv-x="999" 
d="M336 808l-51 54c39 65 90 101 148 101c20 0 46 -7 71 -23l22 -14c19 -12 38 -24 59 -24c25 0 52 20 74 56l53 -46c-26 -63 -75 -102 -128 -102c-37 0 -59 9 -82 23l-20 12c-20 12 -40 20 -54 20c-31 0 -65 -22 -92 -57zM500 -12c-322 0 -430 165 -430 375
c0 209 112 375 430 375c322 0 429 -166 429 -375c0 -210 -106 -375 -429 -375zM500 100c198 0 288 87 288 263s-90 263 -288 263c-192 0 -289 -87 -289 -263c0 -177 91 -263 289 -263z" />
    <glyph glyph-name="Otilde" unicode="&#xf5;" horiz-adv-x="999" 
d="M336 808l-51 54c39 65 90 101 148 101c20 0 46 -7 71 -23l22 -14c19 -12 38 -24 59 -24c25 0 52 20 74 56l53 -46c-26 -63 -75 -102 -128 -102c-37 0 -59 9 -82 23l-20 12c-20 12 -40 20 -54 20c-31 0 -65 -22 -92 -57zM500 -12c-322 0 -430 165 -430 375
c0 209 112 375 430 375c322 0 429 -166 429 -375c0 -210 -106 -375 -429 -375zM500 100c198 0 288 87 288 263s-90 263 -288 263c-192 0 -289 -87 -289 -263c0 -177 91 -263 289 -263z" />
    <glyph glyph-name="OE" unicode="&#x152;" horiz-adv-x="1407" 
d="M1317 103v-103h-585c-57 -8 -122 -12 -201 -12c-285 0 -461 104 -461 375s176 375 461 375c79 0 144 -4 201 -12h583v-103h-501v-210h408v-101h-408v-209h503zM529 91c56 0 104 2 148 6v532c-44 4 -93 6 -148 6c-217 0 -318 -77 -318 -272s101 -272 318 -272z" />
    <glyph glyph-name="OE" unicode="&#x153;" horiz-adv-x="1407" 
d="M1317 103v-103h-585c-57 -8 -122 -12 -201 -12c-285 0 -461 104 -461 375s176 375 461 375c79 0 144 -4 201 -12h583v-103h-501v-210h408v-101h-408v-209h503zM529 91c56 0 104 2 148 6v532c-44 4 -93 6 -148 6c-217 0 -318 -77 -318 -272s101 -272 318 -272z" />
    <glyph glyph-name="P" unicode="P" horiz-adv-x="885" 
d="M518 726c211 0 322 -90 322 -253c0 -162 -111 -252 -322 -252h-261v-221h-137v726h398zM517 324c115 0 182 39 182 149c0 111 -67 150 -182 150h-260v-299h260z" />
    <glyph glyph-name="P" unicode="p" horiz-adv-x="885" 
d="M518 726c211 0 322 -90 322 -253c0 -162 -111 -252 -322 -252h-261v-221h-137v726h398zM517 324c115 0 182 39 182 149c0 111 -67 150 -182 150h-260v-299h260z" />
    <glyph glyph-name="Thorn" unicode="&#xde;" horiz-adv-x="910" 
d="M518 630c211 0 322 -90 322 -253c0 -162 -111 -252 -322 -252h-261v-125h-137v726h137v-96h261zM517 228c115 0 183 39 183 149c0 111 -68 150 -183 150h-260v-299h260z" />
    <glyph glyph-name="Thorn" unicode="&#xfe;" horiz-adv-x="910" 
d="M518 630c211 0 322 -90 322 -253c0 -162 -111 -252 -322 -252h-261v-125h-137v726h137v-96h261zM517 228c115 0 183 39 183 149c0 111 -68 150 -183 150h-260v-299h260z" />
    <glyph glyph-name="Q" unicode="Q" horiz-adv-x="999" 
d="M929 363c0 -170 -70 -312 -269 -359c18 -18 40 -46 47 -55l91 -125l-112 -60l-107 154c-38 55 -62 70 -111 70c-287 0 -398 174 -398 375c0 209 112 375 430 375c322 0 429 -166 429 -375zM500 100c198 0 288 87 288 263s-90 263 -288 263c-192 0 -289 -87 -289 -263
c0 -177 91 -263 289 -263z" />
    <glyph glyph-name="Q" unicode="q" horiz-adv-x="999" 
d="M929 363c0 -170 -70 -312 -269 -359c18 -18 40 -46 47 -55l91 -125l-112 -60l-107 154c-38 55 -62 70 -111 70c-287 0 -398 174 -398 375c0 209 112 375 430 375c322 0 429 -166 429 -375zM500 100c198 0 288 87 288 263s-90 263 -288 263c-192 0 -289 -87 -289 -263
c0 -177 91 -263 289 -263z" />
    <glyph glyph-name="R" unicode="R" horiz-adv-x="914" 
d="M770 144l114 -144h-165l-136 174c-27 35 -46 47 -87 47h-239v-221h-137v726h380c231 0 342 -90 342 -253c0 -119 -70 -193 -162 -228c25 -22 47 -47 90 -101zM499 324c133 0 204 38 204 149c0 112 -71 150 -204 150h-242v-299h242z" />
    <glyph glyph-name="R" unicode="r" horiz-adv-x="914" 
d="M770 144l114 -144h-165l-136 174c-27 35 -46 47 -87 47h-239v-221h-137v726h380c231 0 342 -90 342 -253c0 -119 -70 -193 -162 -228c25 -22 47 -47 90 -101zM499 324c133 0 204 38 204 149c0 112 -71 150 -204 150h-242v-299h242z" />
    <glyph glyph-name="Racute" unicode="&#x154;" horiz-adv-x="914" 
d="M672 990l-144 -185h-119l102 185h161zM770 144l114 -144h-165l-136 174c-27 35 -46 47 -87 47h-239v-221h-137v726h380c231 0 342 -90 342 -253c0 -119 -70 -193 -162 -228c25 -22 47 -47 90 -101zM499 324c133 0 204 38 204 149c0 112 -71 150 -204 150h-242v-299h242z
" />
    <glyph glyph-name="Racute" unicode="&#x155;" horiz-adv-x="914" 
d="M672 990l-144 -185h-119l102 185h161zM770 144l114 -144h-165l-136 174c-27 35 -46 47 -87 47h-239v-221h-137v726h380c231 0 342 -90 342 -253c0 -119 -70 -193 -162 -228c25 -22 47 -47 90 -101zM499 324c133 0 204 38 204 149c0 112 -71 150 -204 150h-242v-299h242z
" />
    <glyph glyph-name="Rcaron" unicode="&#x158;" horiz-adv-x="914" 
d="M527 799h-108l-140 188h126l64 -99h7l64 99h126zM770 144l114 -144h-165l-136 174c-27 35 -46 47 -87 47h-239v-221h-137v726h380c231 0 342 -90 342 -253c0 -119 -70 -193 -162 -228c25 -22 47 -47 90 -101zM499 324c133 0 204 38 204 149c0 112 -71 150 -204 150h-242
v-299h242z" />
    <glyph glyph-name="Rcaron" unicode="&#x159;" horiz-adv-x="914" 
d="M527 799h-108l-140 188h126l64 -99h7l64 99h126zM770 144l114 -144h-165l-136 174c-27 35 -46 47 -87 47h-239v-221h-137v726h380c231 0 342 -90 342 -253c0 -119 -70 -193 -162 -228c25 -22 47 -47 90 -101zM499 324c133 0 204 38 204 149c0 112 -71 150 -204 150h-242
v-299h242z" />
    <glyph glyph-name="uni0156" unicode="&#x156;" horiz-adv-x="914" 
d="M770 144l114 -144h-165l-136 174c-27 35 -46 47 -87 47h-239v-221h-137v726h380c231 0 342 -90 342 -253c0 -119 -70 -193 -162 -228c25 -22 47 -47 90 -101zM499 324c133 0 204 38 204 149c0 112 -71 150 -204 150h-242v-299h242zM403 -336l29 246h127l-60 -246h-96z
" />
    <glyph glyph-name="uni0156" unicode="&#x157;" horiz-adv-x="914" 
d="M770 144l114 -144h-165l-136 174c-27 35 -46 47 -87 47h-239v-221h-137v726h380c231 0 342 -90 342 -253c0 -119 -70 -193 -162 -228c25 -22 47 -47 90 -101zM499 324c133 0 204 38 204 149c0 112 -71 150 -204 150h-242v-299h242zM403 -336l29 246h127l-60 -246h-96z
" />
    <glyph glyph-name="S" unicode="S" horiz-adv-x="813" 
d="M373 -12c-112 0 -215 10 -296 27v104c83 -17 199 -28 308 -28c132 0 245 16 245 121c0 67 -41 77 -110 87l-236 35c-81 12 -236 39 -236 199c0 175 186 205 408 205c99 0 178 -7 257 -32v-104c-83 25 -166 33 -273 33c-158 0 -256 -13 -256 -105c0 -67 53 -77 119 -87
l262 -39c82 -12 200 -44 200 -195c0 -183 -173 -221 -392 -221z" />
    <glyph glyph-name="S" unicode="s" horiz-adv-x="813" 
d="M373 -12c-112 0 -215 10 -296 27v104c83 -17 199 -28 308 -28c132 0 245 16 245 121c0 67 -41 77 -110 87l-236 35c-81 12 -236 39 -236 199c0 175 186 205 408 205c99 0 178 -7 257 -32v-104c-83 25 -166 33 -273 33c-158 0 -256 -13 -256 -105c0 -67 53 -77 119 -87
l262 -39c82 -12 200 -44 200 -195c0 -183 -173 -221 -392 -221z" />
    <glyph glyph-name="Sacute" unicode="&#x15a;" horiz-adv-x="813" 
d="M343 805l102 185h161l-144 -185h-119zM373 -12c-112 0 -215 10 -296 27v104c83 -17 199 -28 308 -28c132 0 245 16 245 121c0 67 -41 77 -110 87l-236 35c-81 12 -236 39 -236 199c0 175 186 205 408 205c99 0 178 -7 257 -32v-104c-83 25 -166 33 -273 33
c-158 0 -256 -13 -256 -105c0 -67 53 -77 119 -87l262 -39c82 -12 200 -44 200 -195c0 -183 -173 -221 -392 -221z" />
    <glyph glyph-name="Sacute" unicode="&#x15b;" horiz-adv-x="813" 
d="M343 805l102 185h161l-144 -185h-119zM373 -12c-112 0 -215 10 -296 27v104c83 -17 199 -28 308 -28c132 0 245 16 245 121c0 67 -41 77 -110 87l-236 35c-81 12 -236 39 -236 199c0 175 186 205 408 205c99 0 178 -7 257 -32v-104c-83 25 -166 33 -273 33
c-158 0 -256 -13 -256 -105c0 -67 53 -77 119 -87l262 -39c82 -12 200 -44 200 -195c0 -183 -173 -221 -392 -221z" />
    <glyph glyph-name="Scaron" unicode="&#x160;" horiz-adv-x="813" 
d="M353 799l-140 188h126l64 -99h7l64 99h126l-139 -188h-108zM373 -12c-112 0 -215 10 -296 27v104c83 -17 199 -28 308 -28c132 0 245 16 245 121c0 67 -41 77 -110 87l-236 35c-81 12 -236 39 -236 199c0 175 186 205 408 205c99 0 178 -7 257 -32v-104
c-83 25 -166 33 -273 33c-158 0 -256 -13 -256 -105c0 -67 53 -77 119 -87l262 -39c82 -12 200 -44 200 -195c0 -183 -173 -221 -392 -221z" />
    <glyph glyph-name="Scaron" unicode="&#x161;" horiz-adv-x="813" 
d="M353 799l-140 188h126l64 -99h7l64 99h126l-139 -188h-108zM373 -12c-112 0 -215 10 -296 27v104c83 -17 199 -28 308 -28c132 0 245 16 245 121c0 67 -41 77 -110 87l-236 35c-81 12 -236 39 -236 199c0 175 186 205 408 205c99 0 178 -7 257 -32v-104
c-83 25 -166 33 -273 33c-158 0 -256 -13 -256 -105c0 -67 53 -77 119 -87l262 -39c82 -12 200 -44 200 -195c0 -183 -173 -221 -392 -221z" />
    <glyph glyph-name="Scedilla" unicode="&#x15e;" horiz-adv-x="813" 
d="M765 209c0 -176 -160 -218 -366 -221l-5 -41h44c76 0 120 -46 120 -120c0 -86 -40 -136 -134 -136h-170v82h159c24 0 39 10 39 46c0 45 -18 45 -39 45h-116l21 125c-91 3 -174 12 -241 26v104c83 -17 199 -28 308 -28c132 0 245 16 245 121c0 67 -41 77 -110 87l-236 35
c-81 12 -236 39 -236 199c0 175 186 205 408 205c99 0 178 -7 257 -32v-104c-83 25 -166 33 -273 33c-158 0 -256 -13 -256 -105c0 -67 53 -77 119 -87l262 -39c82 -12 200 -44 200 -195z" />
    <glyph glyph-name="Scedilla" unicode="&#x15f;" horiz-adv-x="813" 
d="M765 209c0 -176 -160 -218 -366 -221l-5 -41h44c76 0 120 -46 120 -120c0 -86 -40 -136 -134 -136h-170v82h159c24 0 39 10 39 46c0 45 -18 45 -39 45h-116l21 125c-91 3 -174 12 -241 26v104c83 -17 199 -28 308 -28c132 0 245 16 245 121c0 67 -41 77 -110 87l-236 35
c-81 12 -236 39 -236 199c0 175 186 205 408 205c99 0 178 -7 257 -32v-104c-83 25 -166 33 -273 33c-158 0 -256 -13 -256 -105c0 -67 53 -77 119 -87l262 -39c82 -12 200 -44 200 -195z" />
    <glyph glyph-name="Scircumflex" unicode="&#x15c;" horiz-adv-x="813" 
d="M213 791l140 188h108l139 -188h-126l-64 100h-7l-64 -100h-126zM373 -12c-112 0 -215 10 -296 27v104c83 -17 199 -28 308 -28c132 0 245 16 245 121c0 67 -41 77 -110 87l-236 35c-81 12 -236 39 -236 199c0 175 186 205 408 205c99 0 178 -7 257 -32v-104
c-83 25 -166 33 -273 33c-158 0 -256 -13 -256 -105c0 -67 53 -77 119 -87l262 -39c82 -12 200 -44 200 -195c0 -183 -173 -221 -392 -221z" />
    <glyph glyph-name="Scircumflex" unicode="&#x15d;" horiz-adv-x="813" 
d="M213 791l140 188h108l139 -188h-126l-64 100h-7l-64 -100h-126zM373 -12c-112 0 -215 10 -296 27v104c83 -17 199 -28 308 -28c132 0 245 16 245 121c0 67 -41 77 -110 87l-236 35c-81 12 -236 39 -236 199c0 175 186 205 408 205c99 0 178 -7 257 -32v-104
c-83 25 -166 33 -273 33c-158 0 -256 -13 -256 -105c0 -67 53 -77 119 -87l262 -39c82 -12 200 -44 200 -195c0 -183 -173 -221 -392 -221z" />
    <glyph glyph-name="uni0218" unicode="&#x218;" horiz-adv-x="813" 
d="M373 -12c-112 0 -215 10 -296 27v104c83 -17 199 -28 308 -28c132 0 245 16 245 121c0 67 -41 77 -110 87l-236 35c-81 12 -236 39 -236 199c0 175 186 205 408 205c99 0 178 -7 257 -32v-104c-83 25 -166 33 -273 33c-158 0 -256 -13 -256 -105c0 -67 53 -77 119 -87
l262 -39c82 -12 200 -44 200 -195c0 -183 -173 -221 -392 -221zM328 -336l29 246h127l-60 -246h-96z" />
    <glyph glyph-name="uni0218" unicode="&#x219;" horiz-adv-x="813" 
d="M373 -12c-112 0 -215 10 -296 27v104c83 -17 199 -28 308 -28c132 0 245 16 245 121c0 67 -41 77 -110 87l-236 35c-81 12 -236 39 -236 199c0 175 186 205 408 205c99 0 178 -7 257 -32v-104c-83 25 -166 33 -273 33c-158 0 -256 -13 -256 -105c0 -67 53 -77 119 -87
l262 -39c82 -12 200 -44 200 -195c0 -183 -173 -221 -392 -221zM328 -336l29 246h127l-60 -246h-96z" />
    <glyph glyph-name="T" unicode="T" horiz-adv-x="805" 
d="M762 726v-103h-291v-623h-137v623h-291v103h719z" />
    <glyph glyph-name="T" unicode="t" horiz-adv-x="805" 
d="M762 726v-103h-291v-623h-137v623h-291v103h719z" />
    <glyph glyph-name="Tbar" unicode="&#x166;" horiz-adv-x="805" 
d="M762 623h-291v-214h171v-93h-171v-316h-137v316h-170v93h170v214h-291v103h719v-103z" />
    <glyph glyph-name="Tbar" unicode="&#x167;" horiz-adv-x="805" 
d="M762 623h-291v-214h171v-93h-171v-316h-137v316h-170v93h170v214h-291v103h719v-103z" />
    <glyph glyph-name="Tcaron" unicode="&#x164;" horiz-adv-x="805" 
d="M457 799h-108l-140 188h126l64 -99h7l64 99h126zM762 726v-103h-291v-623h-137v623h-291v103h719z" />
    <glyph glyph-name="Tcaron" unicode="&#x165;" horiz-adv-x="805" 
d="M457 799h-108l-140 188h126l64 -99h7l64 99h126zM762 726v-103h-291v-623h-137v623h-291v103h719z" />
    <glyph glyph-name="uni0162" unicode="&#x162;" horiz-adv-x="805" 
d="M43 726h719v-103h-291v-623h-137v623h-291v103zM325 -336l29 246h127l-60 -246h-96z" />
    <glyph glyph-name="uni0162" unicode="&#x163;" horiz-adv-x="805" 
d="M43 726h719v-103h-291v-623h-137v623h-291v103zM325 -336l29 246h127l-60 -246h-96z" />
    <glyph glyph-name="uni021A" unicode="&#x21a;" horiz-adv-x="805" 
d="M43 726h719v-103h-291v-623h-137v623h-291v103zM325 -336l29 246h127l-60 -246h-96z" />
    <glyph glyph-name="uni021A" unicode="&#x21b;" horiz-adv-x="805" 
d="M43 726h719v-103h-291v-623h-137v623h-291v103zM325 -336l29 246h127l-60 -246h-96z" />
    <glyph glyph-name="U" unicode="U" horiz-adv-x="966" 
d="M483 -12c-235 0 -373 66 -373 335v403h137v-382c0 -187 62 -247 236 -247s236 60 236 247v382h137v-403c0 -269 -138 -335 -373 -335z" />
    <glyph glyph-name="U" unicode="u" horiz-adv-x="966" 
d="M483 -12c-235 0 -373 66 -373 335v403h137v-382c0 -187 62 -247 236 -247s236 60 236 247v382h137v-403c0 -269 -138 -335 -373 -335z" />
    <glyph glyph-name="Uacute" unicode="&#xda;" horiz-adv-x="966" 
d="M419 805l102 185h161l-144 -185h-119zM483 -12c-235 0 -373 66 -373 335v403h137v-382c0 -187 62 -247 236 -247s236 60 236 247v382h137v-403c0 -269 -138 -335 -373 -335z" />
    <glyph glyph-name="Uacute" unicode="&#xfa;" horiz-adv-x="966" 
d="M419 805l102 185h161l-144 -185h-119zM483 -12c-235 0 -373 66 -373 335v403h137v-382c0 -187 62 -247 236 -247s236 60 236 247v382h137v-403c0 -269 -138 -335 -373 -335z" />
    <glyph glyph-name="Ubreve" unicode="&#x16c;" horiz-adv-x="966" 
d="M473 813c-103 0 -174 57 -180 171h100c6 -54 36 -89 87 -89h6c51 0 82 35 87 89h100c-7 -116 -78 -171 -179 -171h-21zM483 -12c-235 0 -373 66 -373 335v403h137v-382c0 -187 62 -247 236 -247s236 60 236 247v382h137v-403c0 -269 -138 -335 -373 -335z" />
    <glyph glyph-name="Ubreve" unicode="&#x16d;" horiz-adv-x="966" 
d="M473 813c-103 0 -174 57 -180 171h100c6 -54 36 -89 87 -89h6c51 0 82 35 87 89h100c-7 -116 -78 -171 -179 -171h-21zM483 -12c-235 0 -373 66 -373 335v403h137v-382c0 -187 62 -247 236 -247s236 60 236 247v382h137v-403c0 -269 -138 -335 -373 -335z" />
    <glyph glyph-name="Ucircumflex" unicode="&#xdb;" horiz-adv-x="966" 
d="M289 791l140 188h108l139 -188h-126l-64 100h-7l-64 -100h-126zM483 -12c-235 0 -373 66 -373 335v403h137v-382c0 -187 62 -247 236 -247s236 60 236 247v382h137v-403c0 -269 -138 -335 -373 -335z" />
    <glyph glyph-name="Ucircumflex" unicode="&#xfb;" horiz-adv-x="966" 
d="M289 791l140 188h108l139 -188h-126l-64 100h-7l-64 -100h-126zM483 -12c-235 0 -373 66 -373 335v403h137v-382c0 -187 62 -247 236 -247s236 60 236 247v382h137v-403c0 -269 -138 -335 -373 -335z" />
    <glyph glyph-name="Udieresis" unicode="&#xdc;" horiz-adv-x="966" 
d="M372 815c-47 0 -72 20 -72 73s25 75 72 75c45 0 71 -22 71 -75s-26 -73 -71 -73zM593 815c-46 0 -71 20 -71 73s25 75 71 75s72 -22 72 -75s-26 -73 -72 -73zM483 -12c-235 0 -373 66 -373 335v403h137v-382c0 -187 62 -247 236 -247s236 60 236 247v382h137v-403
c0 -269 -138 -335 -373 -335z" />
    <glyph glyph-name="Udieresis" unicode="&#xfc;" horiz-adv-x="966" 
d="M372 815c-47 0 -72 20 -72 73s25 75 72 75c45 0 71 -22 71 -75s-26 -73 -71 -73zM593 815c-46 0 -71 20 -71 73s25 75 71 75s72 -22 72 -75s-26 -73 -72 -73zM483 -12c-235 0 -373 66 -373 335v403h137v-382c0 -187 62 -247 236 -247s236 60 236 247v382h137v-403
c0 -269 -138 -335 -373 -335z" />
    <glyph glyph-name="Ugrave" unicode="&#xd9;" horiz-adv-x="966" 
d="M439 805l-143 185h161l102 -185h-120zM483 -12c-235 0 -373 66 -373 335v403h137v-382c0 -187 62 -247 236 -247s236 60 236 247v382h137v-403c0 -269 -138 -335 -373 -335z" />
    <glyph glyph-name="Ugrave" unicode="&#xf9;" horiz-adv-x="966" 
d="M439 805l-143 185h161l102 -185h-120zM483 -12c-235 0 -373 66 -373 335v403h137v-382c0 -187 62 -247 236 -247s236 60 236 247v382h137v-403c0 -269 -138 -335 -373 -335z" />
    <glyph glyph-name="Uhungarumlaut" unicode="&#x170;" horiz-adv-x="966" 
d="M290 805l80 185h148l-114 -185h-114zM508 805l81 185h147l-114 -185h-114zM483 -12c-235 0 -373 66 -373 335v403h137v-382c0 -187 62 -247 236 -247s236 60 236 247v382h137v-403c0 -269 -138 -335 -373 -335z" />
    <glyph glyph-name="Uhungarumlaut" unicode="&#x171;" horiz-adv-x="966" 
d="M290 805l80 185h148l-114 -185h-114zM508 805l81 185h147l-114 -185h-114zM483 -12c-235 0 -373 66 -373 335v403h137v-382c0 -187 62 -247 236 -247s236 60 236 247v382h137v-403c0 -269 -138 -335 -373 -335z" />
    <glyph glyph-name="Umacron" unicode="&#x16a;" horiz-adv-x="966" 
d="M290 843v88h386v-88h-386zM483 -12c-235 0 -373 66 -373 335v403h137v-382c0 -187 62 -247 236 -247s236 60 236 247v382h137v-403c0 -269 -138 -335 -373 -335z" />
    <glyph glyph-name="Umacron" unicode="&#x16b;" horiz-adv-x="966" 
d="M290 843v88h386v-88h-386zM483 -12c-235 0 -373 66 -373 335v403h137v-382c0 -187 62 -247 236 -247s236 60 236 247v382h137v-403c0 -269 -138 -335 -373 -335z" />
    <glyph glyph-name="Uogonek" unicode="&#x172;" horiz-adv-x="966" 
d="M719 726h137v-403c0 -155 -39 -240 -130 -289c-132 -71 -166 -150 -166 -205c0 -25 15 -52 39 -52h63v-86h-78c-81 0 -131 44 -131 122c0 51 25 108 92 177c-20 -1 -41 -2 -62 -2c-235 0 -373 66 -373 335v403h137v-382c0 -187 62 -247 236 -247s236 60 236 247v382z" />
    <glyph glyph-name="Uogonek" unicode="&#x173;" horiz-adv-x="966" 
d="M719 726h137v-403c0 -155 -39 -240 -130 -289c-132 -71 -166 -150 -166 -205c0 -25 15 -52 39 -52h63v-86h-78c-81 0 -131 44 -131 122c0 51 25 108 92 177c-20 -1 -41 -2 -62 -2c-235 0 -373 66 -373 335v403h137v-382c0 -187 62 -247 236 -247s236 60 236 247v382z" />
    <glyph glyph-name="Uring" unicode="&#x16e;" horiz-adv-x="966" 
d="M460 756c-49 0 -94 20 -94 108c0 72 34 108 94 108h46c50 0 94 -20 94 -108c0 -73 -36 -108 -94 -108h-46zM473 816h20c26 0 39 16 39 48s-13 48 -39 48h-20c-26 0 -39 -16 -39 -48s13 -48 39 -48zM483 -12c-235 0 -373 66 -373 335v403h137v-382
c0 -187 62 -247 236 -247s236 60 236 247v382h137v-403c0 -269 -138 -335 -373 -335z" />
    <glyph glyph-name="Uring" unicode="&#x16f;" horiz-adv-x="966" 
d="M460 756c-49 0 -94 20 -94 108c0 72 34 108 94 108h46c50 0 94 -20 94 -108c0 -73 -36 -108 -94 -108h-46zM473 816h20c26 0 39 16 39 48s-13 48 -39 48h-20c-26 0 -39 -16 -39 -48s13 -48 39 -48zM483 -12c-235 0 -373 66 -373 335v403h137v-382
c0 -187 62 -247 236 -247s236 60 236 247v382h137v-403c0 -269 -138 -335 -373 -335z" />
    <glyph glyph-name="Utilde" unicode="&#x168;" horiz-adv-x="966" 
d="M320 808l-51 54c39 65 90 101 148 101c20 0 46 -7 71 -23l22 -14c19 -12 38 -24 59 -24c25 0 52 20 74 56l53 -46c-26 -63 -75 -102 -128 -102c-37 0 -59 9 -82 23l-20 12c-20 12 -40 20 -54 20c-31 0 -65 -22 -92 -57zM483 -12c-235 0 -373 66 -373 335v403h137v-382
c0 -187 62 -247 236 -247s236 60 236 247v382h137v-403c0 -269 -138 -335 -373 -335z" />
    <glyph glyph-name="Utilde" unicode="&#x169;" horiz-adv-x="966" 
d="M320 808l-51 54c39 65 90 101 148 101c20 0 46 -7 71 -23l22 -14c19 -12 38 -24 59 -24c25 0 52 20 74 56l53 -46c-26 -63 -75 -102 -128 -102c-37 0 -59 9 -82 23l-20 12c-20 12 -40 20 -54 20c-31 0 -65 -22 -92 -57zM483 -12c-235 0 -373 66 -373 335v403h137v-382
c0 -187 62 -247 236 -247s236 60 236 247v382h137v-403c0 -269 -138 -335 -373 -335z" />
    <glyph glyph-name="V" unicode="V" horiz-adv-x="872" 
d="M705 726h141l-353 -726h-113l-354 726h146l270 -556z" />
    <glyph glyph-name="V" unicode="v" horiz-adv-x="872" 
d="M705 726h141l-353 -726h-113l-354 726h146l270 -556z" />
    <glyph glyph-name="W" unicode="W" horiz-adv-x="1242" 
d="M1092 726h124l-288 -726h-131l-176 513l-176 -513h-132l-287 726h132l222 -563l189 563h107l194 -566z" />
    <glyph glyph-name="W" unicode="w" horiz-adv-x="1242" 
d="M1092 726h124l-288 -726h-131l-176 513l-176 -513h-132l-287 726h132l222 -563l189 563h107l194 -566z" />
    <glyph glyph-name="Wacute" unicode="&#x1e82;" horiz-adv-x="1242" 
d="M820 990l-144 -185h-119l102 185h161zM1092 726h124l-288 -726h-131l-176 513l-176 -513h-132l-287 726h132l222 -563l189 563h107l194 -566z" />
    <glyph glyph-name="Wacute" unicode="&#x1e83;" horiz-adv-x="1242" 
d="M820 990l-144 -185h-119l102 185h161zM1092 726h124l-288 -726h-131l-176 513l-176 -513h-132l-287 726h132l222 -563l189 563h107l194 -566z" />
    <glyph glyph-name="Wcircumflex" unicode="&#x174;" horiz-adv-x="1242" 
d="M617 891l-64 -100h-126l140 188h108l139 -188h-126l-64 100h-7zM1092 726h124l-288 -726h-131l-176 513l-176 -513h-132l-287 726h132l222 -563l189 563h107l194 -566z" />
    <glyph glyph-name="Wcircumflex" unicode="&#x175;" horiz-adv-x="1242" 
d="M617 891l-64 -100h-126l140 188h108l139 -188h-126l-64 100h-7zM1092 726h124l-288 -726h-131l-176 513l-176 -513h-132l-287 726h132l222 -563l189 563h107l194 -566z" />
    <glyph glyph-name="Wdieresis" unicode="&#x1e84;" horiz-adv-x="1242" 
d="M510 815c-47 0 -72 20 -72 73s25 75 72 75c45 0 71 -22 71 -75s-26 -73 -71 -73zM731 815c-46 0 -71 20 -71 73s25 75 71 75s72 -22 72 -75s-26 -73 -72 -73zM1092 726h124l-288 -726h-131l-176 513l-176 -513h-132l-287 726h132l222 -563l189 563h107l194 -566z" />
    <glyph glyph-name="Wdieresis" unicode="&#x1e85;" horiz-adv-x="1242" 
d="M510 815c-47 0 -72 20 -72 73s25 75 72 75c45 0 71 -22 71 -75s-26 -73 -71 -73zM731 815c-46 0 -71 20 -71 73s25 75 71 75s72 -22 72 -75s-26 -73 -72 -73zM1092 726h124l-288 -726h-131l-176 513l-176 -513h-132l-287 726h132l222 -563l189 563h107l194 -566z" />
    <glyph glyph-name="Wgrave" unicode="&#x1e80;" horiz-adv-x="1242" 
d="M697 805h-120l-143 185h161zM1092 726h124l-288 -726h-131l-176 513l-176 -513h-132l-287 726h132l222 -563l189 563h107l194 -566z" />
    <glyph glyph-name="Wgrave" unicode="&#x1e81;" horiz-adv-x="1242" 
d="M697 805h-120l-143 185h161zM1092 726h124l-288 -726h-131l-176 513l-176 -513h-132l-287 726h132l222 -563l189 563h107l194 -566z" />
    <glyph glyph-name="X" unicode="X" horiz-adv-x="859" 
d="M844 0h-169l-247 280l-250 -280h-163l333 371l-313 355h169l229 -260l233 260h160l-313 -351z" />
    <glyph glyph-name="X" unicode="x" horiz-adv-x="859" 
d="M844 0h-169l-247 280l-250 -280h-163l333 371l-313 355h169l229 -260l233 260h160l-313 -351z" />
    <glyph glyph-name="Y" unicode="Y" horiz-adv-x="828" 
d="M823 726l-340 -457v-269h-137v265l-341 461h159l252 -344l252 344h155z" />
    <glyph glyph-name="Y" unicode="y" horiz-adv-x="828" 
d="M823 726l-340 -457v-269h-137v265l-341 461h159l252 -344l252 344h155z" />
    <glyph glyph-name="Yacute" unicode="&#xdd;" horiz-adv-x="828" 
d="M613 990l-144 -185h-119l102 185h161zM823 726l-340 -457v-269h-137v265l-341 461h159l252 -344l252 344h155z" />
    <glyph glyph-name="Yacute" unicode="&#xfd;" horiz-adv-x="828" 
d="M613 990l-144 -185h-119l102 185h161zM823 726l-340 -457v-269h-137v265l-341 461h159l252 -344l252 344h155z" />
    <glyph glyph-name="Ycircumflex" unicode="&#x176;" horiz-adv-x="828" 
d="M410 891l-64 -100h-126l140 188h108l139 -188h-126l-64 100h-7zM823 726l-340 -457v-269h-137v265l-341 461h159l252 -344l252 344h155z" />
    <glyph glyph-name="Ycircumflex" unicode="&#x177;" horiz-adv-x="828" 
d="M410 891l-64 -100h-126l140 188h108l139 -188h-126l-64 100h-7zM823 726l-340 -457v-269h-137v265l-341 461h159l252 -344l252 344h155z" />
    <glyph glyph-name="Ydieresis" unicode="&#xff;" horiz-adv-x="828" 
d="M303 815c-47 0 -72 20 -72 73s25 75 72 75c45 0 71 -22 71 -75s-26 -73 -71 -73zM524 815c-46 0 -71 20 -71 73s25 75 71 75s72 -22 72 -75s-26 -73 -72 -73zM823 726l-340 -457v-269h-137v265l-341 461h159l252 -344l252 344h155z" />
    <glyph glyph-name="Ydieresis" unicode="&#x178;" horiz-adv-x="828" 
d="M303 815c-47 0 -72 20 -72 73s25 75 72 75c45 0 71 -22 71 -75s-26 -73 -71 -73zM524 815c-46 0 -71 20 -71 73s25 75 71 75s72 -22 72 -75s-26 -73 -72 -73zM823 726l-340 -457v-269h-137v265l-341 461h159l252 -344l252 344h155z" />
    <glyph glyph-name="Ygrave" unicode="&#x1ef2;" horiz-adv-x="828" 
d="M490 805h-120l-143 185h161zM823 726l-340 -457v-269h-137v265l-341 461h159l252 -344l252 344h155z" />
    <glyph glyph-name="Ygrave" unicode="&#x1ef3;" horiz-adv-x="828" 
d="M490 805h-120l-143 185h161zM823 726l-340 -457v-269h-137v265l-341 461h159l252 -344l252 344h155z" />
    <glyph glyph-name="Z" unicode="Z" horiz-adv-x="846" 
d="M253 103h525v-103h-710v93l516 530h-515v103h702v-93z" />
    <glyph glyph-name="Z" unicode="z" horiz-adv-x="846" 
d="M253 103h525v-103h-710v93l516 530h-515v103h702v-93z" />
    <glyph glyph-name="Zacute" unicode="&#x179;" horiz-adv-x="846" 
d="M625 990l-144 -185h-119l102 185h161zM253 103h525v-103h-710v93l516 530h-515v103h702v-93z" />
    <glyph glyph-name="Zacute" unicode="&#x17a;" horiz-adv-x="846" 
d="M625 990l-144 -185h-119l102 185h161zM253 103h525v-103h-710v93l516 530h-515v103h702v-93z" />
    <glyph glyph-name="Zcaron" unicode="&#x17d;" horiz-adv-x="846" 
d="M480 799h-108l-140 188h126l64 -99h7l64 99h126zM253 103h525v-103h-710v93l516 530h-515v103h702v-93z" />
    <glyph glyph-name="Zcaron" unicode="&#x17e;" horiz-adv-x="846" 
d="M480 799h-108l-140 188h126l64 -99h7l64 99h126zM253 103h525v-103h-710v93l516 530h-515v103h702v-93z" />
    <glyph glyph-name="Zdotaccent" unicode="&#x17b;" horiz-adv-x="846" 
d="M426 816c-49 0 -77 19 -77 72s28 75 77 75c50 0 78 -22 78 -75s-28 -72 -78 -72zM253 103h525v-103h-710v93l516 530h-515v103h702v-93z" />
    <glyph glyph-name="Zdotaccent" unicode="&#x17c;" horiz-adv-x="846" 
d="M426 816c-49 0 -77 19 -77 72s28 75 77 75c50 0 78 -22 78 -75s-28 -72 -78 -72zM253 103h525v-103h-710v93l516 530h-515v103h702v-93z" />
    <glyph glyph-name="ordfeminine" unicode="&#xaa;" horiz-adv-x="442" 
d="M178 438c-82 0 -123 31 -123 95c0 67 38 88 106 88h134c0 33 -1 43 -25 43h-184v62h184c94 0 117 -41 117 -137v-138c-26 -7 -75 -13 -136 -13h-73zM191 501h50c23 0 42 1 53 3v59h-103c-38 0 -41 -15 -41 -31c0 -15 4 -31 41 -31z" />
    <glyph glyph-name="ordmasculine" unicode="&#xba;" horiz-adv-x="456" 
d="M228 437c-134 0 -183 52 -183 145c0 92 49 144 183 144s183 -52 183 -144c0 -93 -49 -145 -183 -145zM228 501c66 0 88 20 88 81c0 60 -23 80 -88 80c-66 0 -88 -20 -88 -80c0 -61 22 -81 88 -81z" />
    <glyph glyph-name="uni0410" unicode="&#x410;" horiz-adv-x="900" 
d="M727 0l-68 140h-421l-67 -140h-145l367 726h113l368 -726h-147zM289 245h319l-160 331z" />
    <glyph glyph-name="uni0410" unicode="&#x430;" horiz-adv-x="900" 
d="M727 0l-68 140h-421l-67 -140h-145l367 726h113l368 -726h-147zM289 245h319l-160 331z" />
    <glyph glyph-name="uni0411" unicode="&#x411;" horiz-adv-x="909" 
d="M120 0v726h659v-103h-522v-192h285c181 0 291 -48 291 -213c0 -187 -143 -218 -291 -218h-422zM257 104h283c81 0 153 2 153 114c0 102 -57 111 -153 111h-283v-225z" />
    <glyph glyph-name="uni0411" unicode="&#x431;" horiz-adv-x="909" 
d="M120 0v726h659v-103h-522v-192h285c181 0 291 -48 291 -213c0 -187 -143 -218 -291 -218h-422zM257 104h283c81 0 153 2 153 114c0 102 -57 111 -153 111h-283v-225z" />
    <glyph glyph-name="uni0412" unicode="&#x412;" horiz-adv-x="917" 
d="M736 385c68 -22 105 -82 105 -174c0 -136 -97 -211 -271 -211h-450v726h460c150 0 233 -67 233 -187c0 -79 -27 -132 -77 -154zM678 523c0 66 -45 102 -126 102h-295v-204h295c81 0 126 36 126 102zM570 100c85 0 133 42 133 117c0 71 -48 110 -133 110h-313v-227h313z
" />
    <glyph glyph-name="uni0412" unicode="&#x432;" horiz-adv-x="917" 
d="M736 385c68 -22 105 -82 105 -174c0 -136 -97 -211 -271 -211h-450v726h460c150 0 233 -67 233 -187c0 -79 -27 -132 -77 -154zM678 523c0 66 -45 102 -126 102h-295v-204h295c81 0 126 36 126 102zM570 100c85 0 133 42 133 117c0 71 -48 110 -133 110h-313v-227h313z
" />
    <glyph glyph-name="uni0413" unicode="&#x413;" horiz-adv-x="770" 
d="M727 726v-103h-470v-623h-137v726h607z" />
    <glyph glyph-name="uni0413" unicode="&#x433;" horiz-adv-x="770" 
d="M727 726v-103h-470v-623h-137v726h607z" />
    <glyph glyph-name="uni0403" unicode="&#x403;" horiz-adv-x="770" 
d="M617 990l-144 -185h-119l102 185h161zM727 726v-103h-470v-623h-137v726h607z" />
    <glyph glyph-name="uni0403" unicode="&#x453;" horiz-adv-x="770" 
d="M617 990l-144 -185h-119l102 185h161zM727 726v-103h-470v-623h-137v726h607z" />
    <glyph glyph-name="uni0490" unicode="&#x490;" horiz-adv-x="767" 
d="M120 0v726h479v202h125v-305h-467v-623h-137z" />
    <glyph glyph-name="uni0490" unicode="&#x491;" horiz-adv-x="767" 
d="M120 0v726h479v202h125v-305h-467v-623h-137z" />
    <glyph glyph-name="uni0414" unicode="&#x414;" horiz-adv-x="952" 
d="M804 103h103v-286h-130v183h-613v-183h-129v286h82c25 58 41 142 61 346l27 277h599v-623zM667 103v520h-337l-18 -177c-21 -199 -35 -287 -50 -343h405z" />
    <glyph glyph-name="uni0414" unicode="&#x434;" horiz-adv-x="952" 
d="M804 103h103v-286h-130v183h-613v-183h-129v286h82c25 58 41 142 61 346l27 277h599v-623zM667 103v520h-337l-18 -177c-21 -199 -35 -287 -50 -343h405z" />
    <glyph glyph-name="uni0415" unicode="&#x415;" horiz-adv-x="850" 
d="M257 103h503v-103h-640v726h638v-103h-501v-210h408v-101h-408v-209z" />
    <glyph glyph-name="uni0415" unicode="&#x435;" horiz-adv-x="850" 
d="M257 103h503v-103h-640v726h638v-103h-501v-210h408v-101h-408v-209z" />
    <glyph glyph-name="uni0400" unicode="&#x400;" horiz-adv-x="850" 
d="M520 805h-120l-143 185h161zM257 103h503v-103h-640v726h638v-103h-501v-210h408v-101h-408v-209z" />
    <glyph glyph-name="uni0400" unicode="&#x450;" horiz-adv-x="850" 
d="M520 805h-120l-143 185h161zM257 103h503v-103h-640v726h638v-103h-501v-210h408v-101h-408v-209z" />
    <glyph glyph-name="uni0401" unicode="&#x401;" horiz-adv-x="850" 
d="M333 815c-47 0 -72 20 -72 73s25 75 72 75c45 0 71 -22 71 -75s-26 -73 -71 -73zM554 815c-46 0 -71 20 -71 73s25 75 71 75s72 -22 72 -75s-26 -73 -72 -73zM257 103h503v-103h-640v726h638v-103h-501v-210h408v-101h-408v-209z" />
    <glyph glyph-name="uni0401" unicode="&#x451;" horiz-adv-x="850" 
d="M333 815c-47 0 -72 20 -72 73s25 75 72 75c45 0 71 -22 71 -75s-26 -73 -71 -73zM554 815c-46 0 -71 20 -71 73s25 75 71 75s72 -22 72 -75s-26 -73 -72 -73zM257 103h503v-103h-640v726h638v-103h-501v-210h408v-101h-408v-209z" />
    <glyph glyph-name="uni0416" unicode="&#x416;" horiz-adv-x="1333" 
d="M1313 0h-170l-278 329h-130v-329h-137v329h-130l-278 -329h-170l347 401l-311 325h155l263 -294h124v294h137v-294h124l263 294h155l-311 -325z" />
    <glyph glyph-name="uni0416" unicode="&#x436;" horiz-adv-x="1333" 
d="M1313 0h-170l-278 329h-130v-329h-137v329h-130l-278 -329h-170l347 401l-311 325h155l263 -294h124v294h137v-294h124l263 294h155l-311 -325z" />
    <glyph glyph-name="uni0417" unicode="&#x417;" horiz-adv-x="777" 
d="M595 385c69 -23 106 -86 106 -178c0 -192 -180 -219 -393 -219c-77 0 -137 7 -188 15v100c51 -8 114 -15 190 -15c142 0 253 3 253 125c0 71 -48 114 -133 114h-250v94h232c81 0 126 36 126 102c0 96 -101 115 -225 115c-62 0 -145 -9 -193 -18v101c55 9 140 17 204 17
c204 0 349 -39 349 -199c0 -79 -28 -132 -78 -154z" />
    <glyph glyph-name="uni0417" unicode="&#x437;" horiz-adv-x="777" 
d="M595 385c69 -23 106 -86 106 -178c0 -192 -180 -219 -393 -219c-77 0 -137 7 -188 15v100c51 -8 114 -15 190 -15c142 0 253 3 253 125c0 71 -48 114 -133 114h-250v94h232c81 0 126 36 126 102c0 96 -101 115 -225 115c-62 0 -145 -9 -193 -18v101c55 9 140 17 204 17
c204 0 349 -39 349 -199c0 -79 -28 -132 -78 -154z" />
    <glyph glyph-name="uni0418" unicode="&#x418;" horiz-adv-x="1000" 
d="M761 726h119v-726h-123v542l-525 -542h-112v726h123v-537z" />
    <glyph glyph-name="uni0418" unicode="&#x438;" horiz-adv-x="1000" 
d="M761 726h119v-726h-123v542l-525 -542h-112v726h123v-537z" />
    <glyph glyph-name="uni0419" unicode="&#x419;" horiz-adv-x="1000" 
d="M479 827c-103 0 -174 56 -180 170h100c6 -54 36 -89 87 -89h6c51 0 82 35 87 89h100c-7 -116 -78 -170 -179 -170h-21zM761 726h119v-726h-123v542l-525 -542h-112v726h123v-537z" />
    <glyph glyph-name="uni0419" unicode="&#x439;" horiz-adv-x="1000" 
d="M479 827c-103 0 -174 56 -180 170h100c6 -54 36 -89 87 -89h6c51 0 82 35 87 89h100c-7 -116 -78 -170 -179 -170h-21zM761 726h119v-726h-123v542l-525 -542h-112v726h123v-537z" />
    <glyph glyph-name="uni040D" unicode="&#x40d;" horiz-adv-x="1000" 
d="M565 805h-120l-143 185h161zM761 726h119v-726h-123v542l-525 -542h-112v726h123v-537z" />
    <glyph glyph-name="uni040D" unicode="&#x45d;" horiz-adv-x="1000" 
d="M565 805h-120l-143 185h161zM761 726h119v-726h-123v542l-525 -542h-112v726h123v-537z" />
    <glyph glyph-name="uni041A" unicode="&#x41a;" horiz-adv-x="855" 
d="M835 0h-170l-278 329h-130v-329h-137v726h137v-294h124l263 294h155l-311 -325z" />
    <glyph glyph-name="uni041A" unicode="&#x43a;" horiz-adv-x="855" 
d="M835 0h-170l-278 329h-130v-329h-137v726h137v-294h124l263 294h155l-311 -325z" />
    <glyph glyph-name="uni040C" unicode="&#x40c;" horiz-adv-x="855" 
d="M667 990l-144 -185h-119l102 185h161zM835 0h-170l-278 329h-130v-329h-137v726h137v-294h124l263 294h155l-311 -325z" />
    <glyph glyph-name="uni040C" unicode="&#x45c;" horiz-adv-x="855" 
d="M667 990l-144 -185h-119l102 185h161zM835 0h-170l-278 329h-130v-329h-137v726h137v-294h124l263 294h155l-311 -325z" />
    <glyph glyph-name="uni041B" unicode="&#x41b;" horiz-adv-x="955" 
d="M25 0v102h79c56 0 70 19 78 113l42 511h611v-726h-137v623h-348l-40 -420c-11 -118 -32 -203 -168 -203h-117z" />
    <glyph glyph-name="uni041B" unicode="&#x43b;" horiz-adv-x="955" 
d="M25 0v102h79c56 0 70 19 78 113l42 511h611v-726h-137v623h-348l-40 -420c-11 -118 -32 -203 -168 -203h-117z" />
    <glyph glyph-name="uni041C" unicode="&#x41c;" horiz-adv-x="1148" 
d="M905 726h123v-726h-133v485l-263 -485h-108l-271 483v-483h-133v726h126l334 -596z" />
    <glyph glyph-name="uni041C" unicode="&#x43c;" horiz-adv-x="1148" 
d="M905 726h123v-726h-133v485l-263 -485h-108l-271 483v-483h-133v726h126l334 -596z" />
    <glyph glyph-name="uni041D" unicode="&#x41d;" horiz-adv-x="989" 
d="M732 726h137v-726h-137v329h-475v-329h-137v726h137v-294h475v294z" />
    <glyph glyph-name="uni041D" unicode="&#x43d;" horiz-adv-x="989" 
d="M732 726h137v-726h-137v329h-475v-329h-137v726h137v-294h475v294z" />
    <glyph glyph-name="uni041E" unicode="&#x41e;" horiz-adv-x="999" 
d="M500 -12c-322 0 -430 165 -430 375c0 209 112 375 430 375c322 0 429 -166 429 -375c0 -210 -106 -375 -429 -375zM500 100c198 0 288 87 288 263s-90 263 -288 263c-192 0 -289 -87 -289 -263c0 -177 91 -263 289 -263z" />
    <glyph glyph-name="uni041E" unicode="&#x43e;" horiz-adv-x="999" 
d="M500 -12c-322 0 -430 165 -430 375c0 209 112 375 430 375c322 0 429 -166 429 -375c0 -210 -106 -375 -429 -375zM500 100c198 0 288 87 288 263s-90 263 -288 263c-192 0 -289 -87 -289 -263c0 -177 91 -263 289 -263z" />
    <glyph glyph-name="uni041F" unicode="&#x41f;" horiz-adv-x="972" 
d="M120 0v726h732v-726h-137v623h-458v-623h-137z" />
    <glyph glyph-name="uni041F" unicode="&#x43f;" horiz-adv-x="972" 
d="M120 0v726h732v-726h-137v623h-458v-623h-137z" />
    <glyph glyph-name="uni0420" unicode="&#x420;" horiz-adv-x="885" 
d="M518 726c211 0 322 -90 322 -253c0 -162 -111 -252 -322 -252h-261v-221h-137v726h398zM517 324c115 0 182 39 182 149c0 111 -67 150 -182 150h-260v-299h260z" />
    <glyph glyph-name="uni0420" unicode="&#x440;" horiz-adv-x="885" 
d="M518 726c211 0 322 -90 322 -253c0 -162 -111 -252 -322 -252h-261v-221h-137v726h398zM517 324c115 0 182 39 182 149c0 111 -67 150 -182 150h-260v-299h260z" />
    <glyph glyph-name="uni0421" unicode="&#x421;" horiz-adv-x="871" 
d="M531 -12c-285 0 -461 104 -461 375s176 375 461 375c104 0 184 -7 254 -21v-104c-71 14 -152 22 -256 22c-217 0 -318 -77 -318 -272s101 -272 318 -272c105 0 185 8 256 22v-104c-70 -14 -149 -21 -254 -21z" />
    <glyph glyph-name="uni0421" unicode="&#x441;" horiz-adv-x="871" 
d="M531 -12c-285 0 -461 104 -461 375s176 375 461 375c104 0 184 -7 254 -21v-104c-71 14 -152 22 -256 22c-217 0 -318 -77 -318 -272s101 -272 318 -272c105 0 185 8 256 22v-104c-70 -14 -149 -21 -254 -21z" />
    <glyph glyph-name="uni0422" unicode="&#x422;" horiz-adv-x="805" 
d="M762 726v-103h-291v-623h-137v623h-291v103h719z" />
    <glyph glyph-name="uni0422" unicode="&#x442;" horiz-adv-x="805" 
d="M762 726v-103h-291v-623h-137v623h-291v103h719z" />
    <glyph glyph-name="uni0423" unicode="&#x423;" horiz-adv-x="871" 
d="M705 726h156l-415 -579c-66 -92 -107 -147 -215 -147h-117v104h97c55 0 77 21 117 73l40 52l-358 497h153l280 -391z" />
    <glyph glyph-name="uni0423" unicode="&#x443;" horiz-adv-x="871" 
d="M705 726h156l-415 -579c-66 -92 -107 -147 -215 -147h-117v104h97c55 0 77 21 117 73l40 52l-358 497h153l280 -391z" />
    <glyph glyph-name="uni040E" unicode="&#x40e;" horiz-adv-x="871" 
d="M424 827c-103 0 -174 56 -180 170h100c6 -54 36 -89 87 -89h6c51 0 82 35 87 89h100c-7 -116 -78 -170 -179 -170h-21zM705 726h156l-415 -579c-66 -92 -107 -147 -215 -147h-117v104h97c55 0 77 21 117 73l40 52l-358 497h153l280 -391z" />
    <glyph glyph-name="uni040E" unicode="&#x45e;" horiz-adv-x="871" 
d="M424 827c-103 0 -174 56 -180 170h100c6 -54 36 -89 87 -89h6c51 0 82 35 87 89h100c-7 -116 -78 -170 -179 -170h-21zM705 726h156l-415 -579c-66 -92 -107 -147 -215 -147h-117v104h97c55 0 77 21 117 73l40 52l-358 497h153l280 -391z" />
    <glyph glyph-name="uni0424" unicode="&#x424;" horiz-adv-x="999" 
d="M929 363c0 -174 -101 -306 -371 -315v-88h-119v88c-268 9 -369 141 -369 315s104 306 369 315v88h119v-88c270 -9 371 -141 371 -315zM558 161c151 6 230 70 230 202c0 133 -79 196 -230 202v-404zM211 363c0 -132 78 -196 228 -202v404c-146 -7 -228 -70 -228 -202z" />
    <glyph glyph-name="uni0424" unicode="&#x444;" horiz-adv-x="999" 
d="M929 363c0 -174 -101 -306 -371 -315v-88h-119v88c-268 9 -369 141 -369 315s104 306 369 315v88h119v-88c270 -9 371 -141 371 -315zM558 161c151 6 230 70 230 202c0 133 -79 196 -230 202v-404zM211 363c0 -132 78 -196 228 -202v404c-146 -7 -228 -70 -228 -202z" />
    <glyph glyph-name="uni0425" unicode="&#x425;" horiz-adv-x="859" 
d="M844 0h-169l-247 280l-250 -280h-163l333 371l-313 355h169l229 -260l233 260h160l-313 -351z" />
    <glyph glyph-name="uni0425" unicode="&#x445;" horiz-adv-x="859" 
d="M844 0h-169l-247 280l-250 -280h-163l333 371l-313 355h169l229 -260l233 260h160l-313 -351z" />
    <glyph glyph-name="uni0427" unicode="&#x427;" horiz-adv-x="929" 
d="M672 726h137v-726h-137v244h-340c-122 0 -214 29 -214 223v259h137v-242c0 -88 8 -137 110 -137h307v379z" />
    <glyph glyph-name="uni0427" unicode="&#x447;" horiz-adv-x="929" 
d="M672 726h137v-726h-137v244h-340c-122 0 -214 29 -214 223v259h137v-242c0 -88 8 -137 110 -137h307v379z" />
    <glyph glyph-name="uni0426" unicode="&#x426;" horiz-adv-x="1002" 
d="M828 -183v183h-708v726h137v-623h460v623h137v-623h103v-286h-129z" />
    <glyph glyph-name="uni0426" unicode="&#x446;" horiz-adv-x="1002" 
d="M828 -183v183h-708v726h137v-623h460v623h137v-623h103v-286h-129z" />
    <glyph glyph-name="uni0428" unicode="&#x428;" horiz-adv-x="1246" 
d="M120 0v726h137v-623h298v623h137v-623h297v623h137v-726h-1006z" />
    <glyph glyph-name="uni0428" unicode="&#x448;" horiz-adv-x="1246" 
d="M120 0v726h137v-623h298v623h137v-623h297v623h137v-726h-1006z" />
    <glyph glyph-name="uni0429" unicode="&#x429;" horiz-adv-x="1274" 
d="M1099 -183v183h-979v726h137v-623h298v623h137v-623h297v623h137v-623h103v-286h-130z" />
    <glyph glyph-name="uni0429" unicode="&#x449;" horiz-adv-x="1274" 
d="M1099 -183v183h-979v726h137v-623h298v623h137v-623h297v623h137v-623h103v-286h-130z" />
    <glyph glyph-name="uni040F" unicode="&#x40f;" horiz-adv-x="974" 
d="M423 -183v183h-303v726h137v-623h460v623h137v-726h-300v-183h-131z" />
    <glyph glyph-name="uni040F" unicode="&#x45f;" horiz-adv-x="974" 
d="M423 -183v183h-303v726h137v-623h460v623h137v-726h-300v-183h-131z" />
    <glyph glyph-name="uni042C" unicode="&#x42c;" horiz-adv-x="885" 
d="M518 505c211 0 322 -90 322 -252c0 -163 -111 -253 -322 -253h-398v726h137v-221h261zM517 103c115 0 183 39 183 150c0 110 -68 149 -183 149h-260v-299h260z" />
    <glyph glyph-name="uni042C" unicode="&#x44c;" horiz-adv-x="885" 
d="M518 505c211 0 322 -90 322 -252c0 -163 -111 -253 -322 -253h-398v726h137v-221h261zM517 103c115 0 183 39 183 150c0 110 -68 149 -183 149h-260v-299h260z" />
    <glyph glyph-name="uni042A" unicode="&#x42a;" horiz-adv-x="1020" 
d="M653 505c211 0 322 -90 322 -252c0 -163 -111 -253 -322 -253h-398v623h-251v103h388v-221h261zM652 103c115 0 183 39 183 150c0 110 -68 149 -183 149h-260v-299h260z" />
    <glyph glyph-name="uni042A" unicode="&#x44a;" horiz-adv-x="1020" 
d="M653 505c211 0 322 -90 322 -252c0 -163 -111 -253 -322 -253h-398v623h-251v103h388v-221h261zM652 103c115 0 183 39 183 150c0 110 -68 149 -183 149h-260v-299h260z" />
    <glyph glyph-name="uni042B" unicode="&#x42b;" horiz-adv-x="1230" 
d="M518 505c211 0 322 -90 322 -252c0 -163 -111 -253 -322 -253h-398v726h137v-221h261zM973 726h137v-726h-137v726zM517 103c115 0 183 39 183 150c0 110 -68 149 -183 149h-260v-299h260z" />
    <glyph glyph-name="uni042B" unicode="&#x44b;" horiz-adv-x="1230" 
d="M518 505c211 0 322 -90 322 -252c0 -163 -111 -253 -322 -253h-398v726h137v-221h261zM973 726h137v-726h-137v726zM517 103c115 0 183 39 183 150c0 110 -68 149 -183 149h-260v-299h260z" />
    <glyph glyph-name="uni0409" unicode="&#x409;" horiz-adv-x="1400" 
d="M1033 505c211 0 322 -90 322 -252c0 -163 -111 -253 -322 -253h-398v623h-285l-40 -420c-11 -118 -32 -203 -168 -203h-117v102h79c56 0 70 19 78 113l42 511h548v-221h261zM1032 103c115 0 183 39 183 150c0 110 -68 149 -183 149h-260v-299h260z" />
    <glyph glyph-name="uni0409" unicode="&#x459;" horiz-adv-x="1400" 
d="M1033 505c211 0 322 -90 322 -252c0 -163 -111 -253 -322 -253h-398v623h-285l-40 -420c-11 -118 -32 -203 -168 -203h-117v102h79c56 0 70 19 78 113l42 511h548v-221h261zM1032 103c115 0 183 39 183 150c0 110 -68 149 -183 149h-260v-299h260z" />
    <glyph glyph-name="uni040A" unicode="&#x40a;" horiz-adv-x="1455" 
d="M1088 505c211 0 322 -90 322 -252c0 -163 -111 -253 -322 -253h-398v327h-433v-327h-137v726h137v-293h433v293h137v-221h261zM1087 103c115 0 183 39 183 150c0 110 -68 149 -183 149h-260v-299h260z" />
    <glyph glyph-name="uni040A" unicode="&#x45a;" horiz-adv-x="1455" 
d="M1088 505c211 0 322 -90 322 -252c0 -163 -111 -253 -322 -253h-398v327h-433v-327h-137v726h137v-293h433v293h137v-221h261zM1087 103c115 0 183 39 183 150c0 110 -68 149 -183 149h-260v-299h260z" />
    <glyph glyph-name="uni0405" unicode="&#x405;" horiz-adv-x="813" 
d="M373 -12c-112 0 -215 10 -296 27v104c83 -17 199 -28 308 -28c132 0 245 16 245 121c0 67 -41 77 -110 87l-236 35c-81 12 -236 39 -236 199c0 175 186 205 408 205c99 0 178 -7 257 -32v-104c-83 25 -166 33 -273 33c-158 0 -256 -13 -256 -105c0 -67 53 -77 119 -87
l262 -39c82 -12 200 -44 200 -195c0 -183 -173 -221 -392 -221z" />
    <glyph glyph-name="uni0405" unicode="&#x455;" horiz-adv-x="813" 
d="M373 -12c-112 0 -215 10 -296 27v104c83 -17 199 -28 308 -28c132 0 245 16 245 121c0 67 -41 77 -110 87l-236 35c-81 12 -236 39 -236 199c0 175 186 205 408 205c99 0 178 -7 257 -32v-104c-83 25 -166 33 -273 33c-158 0 -256 -13 -256 -105c0 -67 53 -77 119 -87
l262 -39c82 -12 200 -44 200 -195c0 -183 -173 -221 -392 -221z" />
    <glyph glyph-name="uni0404" unicode="&#x404;" horiz-adv-x="864" 
d="M529 635c-194 0 -295 -62 -315 -214h430v-101h-431c14 -163 116 -229 316 -229c105 0 185 8 256 22v-104c-70 -14 -149 -21 -254 -21c-285 0 -461 104 -461 375s176 375 461 375c104 0 184 -7 254 -21v-104c-71 14 -152 22 -256 22z" />
    <glyph glyph-name="uni0404" unicode="&#x454;" horiz-adv-x="864" 
d="M529 635c-194 0 -295 -62 -315 -214h430v-101h-431c14 -163 116 -229 316 -229c105 0 185 8 256 22v-104c-70 -14 -149 -21 -254 -21c-285 0 -461 104 -461 375s176 375 461 375c104 0 184 -7 254 -21v-104c-71 14 -152 22 -256 22z" />
    <glyph glyph-name="uni042D" unicode="&#x42d;" horiz-adv-x="864" 
d="M333 738c285 0 461 -104 461 -375s-176 -375 -461 -375c-105 0 -184 7 -254 21v104c71 -14 151 -22 256 -22c200 0 302 66 316 229h-431v101h430c-20 152 -121 214 -315 214c-104 0 -185 -8 -256 -22v104c70 14 150 21 254 21z" />
    <glyph glyph-name="uni042D" unicode="&#x44d;" horiz-adv-x="864" 
d="M333 738c285 0 461 -104 461 -375s-176 -375 -461 -375c-105 0 -184 7 -254 21v104c71 -14 151 -22 256 -22c200 0 302 66 316 229h-431v101h430c-20 152 -121 214 -315 214c-104 0 -185 -8 -256 -22v104c70 14 150 21 254 21z" />
    <glyph glyph-name="uni0406" unicode="&#x406;" horiz-adv-x="377" 
d="M120 0v726h137v-726h-137z" />
    <glyph glyph-name="uni0406" unicode="&#x456;" horiz-adv-x="377" 
d="M120 0v726h137v-726h-137z" />
    <glyph glyph-name="uni0407" unicode="&#x407;" horiz-adv-x="377" 
d="M78 815c-47 0 -72 20 -72 73s25 75 72 75c45 0 71 -22 71 -75s-26 -73 -71 -73zM299 815c-46 0 -71 20 -71 73s25 75 71 75s72 -22 72 -75s-26 -73 -72 -73zM120 0v726h137v-726h-137z" />
    <glyph glyph-name="uni0407" unicode="&#x457;" horiz-adv-x="377" 
d="M78 815c-47 0 -72 20 -72 73s25 75 72 75c45 0 71 -22 71 -75s-26 -73 -71 -73zM299 815c-46 0 -71 20 -71 73s25 75 71 75s72 -22 72 -75s-26 -73 -72 -73zM120 0v726h137v-726h-137z" />
    <glyph glyph-name="uni0408" unicode="&#x408;" horiz-adv-x="759" 
d="M287 -12c-82 0 -148 6 -217 23v105c65 -18 141 -25 208 -25c135 0 235 30 235 208v427h136v-433c0 -239 -127 -305 -362 -305z" />
    <glyph glyph-name="uni0408" unicode="&#x458;" horiz-adv-x="759" 
d="M287 -12c-82 0 -148 6 -217 23v105c65 -18 141 -25 208 -25c135 0 235 30 235 208v427h136v-433c0 -239 -127 -305 -362 -305z" />
    <glyph glyph-name="uni040B" unicode="&#x40b;" horiz-adv-x="1046" 
d="M712 483c122 0 214 -29 214 -223v-260h-137v243c0 88 -8 137 -110 137h-305v-380h-137v623h-194v103h719v-103h-388v-140h338z" />
    <glyph glyph-name="uni040B" unicode="&#x45b;" horiz-adv-x="1046" 
d="M712 483c122 0 214 -29 214 -223v-260h-137v243c0 88 -8 137 -110 137h-305v-380h-137v623h-194v103h719v-103h-388v-140h338z" />
    <glyph glyph-name="uni042E" unicode="&#x42e;" horiz-adv-x="1329" 
d="M830 738c322 0 429 -166 429 -375c0 -210 -106 -375 -429 -375c-304 0 -418 147 -429 341h-144v-329h-137v726h137v-294h147c24 175 144 306 426 306zM830 100c198 0 288 87 288 263s-90 263 -288 263c-192 0 -289 -87 -289 -263c0 -177 91 -263 289 -263z" />
    <glyph glyph-name="uni042E" unicode="&#x44e;" horiz-adv-x="1329" 
d="M830 738c322 0 429 -166 429 -375c0 -210 -106 -375 -429 -375c-304 0 -418 147 -429 341h-144v-329h-137v726h137v-294h147c24 175 144 306 426 306zM830 100c198 0 288 87 288 263s-90 263 -288 263c-192 0 -289 -87 -289 -263c0 -177 91 -263 289 -263z" />
    <glyph glyph-name="uni042F" unicode="&#x42f;" horiz-adv-x="914" 
d="M414 726h380v-726h-137v221h-239c-41 0 -60 -12 -87 -47l-136 -174h-165l114 144c43 54 65 79 90 101c-92 35 -162 109 -162 228c0 163 111 253 342 253zM415 324h242v299h-242c-133 0 -204 -38 -204 -150c0 -111 71 -149 204 -149z" />
    <glyph glyph-name="uni042F" unicode="&#x44f;" horiz-adv-x="914" 
d="M414 726h380v-726h-137v221h-239c-41 0 -60 -12 -87 -47l-136 -174h-165l114 144c43 54 65 79 90 101c-92 35 -162 109 -162 228c0 163 111 253 342 253zM415 324h242v299h-242c-133 0 -204 -38 -204 -150c0 -111 71 -149 204 -149z" />
    <glyph glyph-name="uni0402" unicode="&#x402;" horiz-adv-x="1046" 
d="M672 483c162 0 254 -39 254 -223v-127c0 -184 -77 -252 -243 -252c-36 0 -75 3 -119 9v103c41 -7 75 -8 103 -8c100 0 122 40 122 165v93c0 78 -8 137 -150 137h-265v-380h-137v623h-194v103h719v-103h-388v-140h298z" />
    <glyph glyph-name="uni0402" unicode="&#x452;" horiz-adv-x="1046" 
d="M672 483c162 0 254 -39 254 -223v-127c0 -184 -77 -252 -243 -252c-36 0 -75 3 -119 9v103c41 -7 75 -8 103 -8c100 0 122 40 122 165v93c0 78 -8 137 -150 137h-265v-380h-137v623h-194v103h719v-103h-388v-140h298z" />
    <glyph glyph-name="uni0462" unicode="&#x462;" horiz-adv-x="942" 
d="M184 0v561h-133v101h133v114h137v-114h320v-101h-320v-140h322c122 0 254 -27 254 -202c0 -198 -165 -219 -265 -219h-448zM321 104h311c87 0 125 34 125 109c0 74 -38 108 -125 108h-311v-217z" />
    <glyph glyph-name="uni0462" unicode="&#x463;" horiz-adv-x="942" 
d="M184 0v561h-133v101h133v114h137v-114h320v-101h-320v-140h322c122 0 254 -27 254 -202c0 -198 -165 -219 -265 -219h-448zM321 104h311c87 0 125 34 125 109c0 74 -38 108 -125 108h-311v-217z" />
    <glyph glyph-name="uni0472" unicode="&#x472;" horiz-adv-x="999" 
d="M500 738c322 0 429 -166 429 -375c0 -210 -106 -375 -429 -375c-322 0 -430 165 -430 375c0 209 112 375 430 375zM500 626c-169 0 -264 -67 -285 -203h569c-19 136 -110 203 -284 203zM500 100c180 0 271 72 286 217h-573c15 -146 107 -217 287 -217z" />
    <glyph glyph-name="uni0472" unicode="&#x473;" horiz-adv-x="999" 
d="M500 738c322 0 429 -166 429 -375c0 -210 -106 -375 -429 -375c-322 0 -430 165 -430 375c0 209 112 375 430 375zM500 626c-169 0 -264 -67 -285 -203h569c-19 136 -110 203 -284 203zM500 100c180 0 271 72 286 217h-573c15 -146 107 -217 287 -217z" />
    <glyph glyph-name="uni0474" unicode="&#x474;" horiz-adv-x="889" 
d="M790 727h94v-102h-71c-32 0 -44 -10 -65 -57l-252 -568h-119l-351 726h146l269 -559l198 447c37 83 74 113 151 113z" />
    <glyph glyph-name="uni0474" unicode="&#x475;" horiz-adv-x="889" 
d="M790 727h94v-102h-71c-32 0 -44 -10 -65 -57l-252 -568h-119l-351 726h146l269 -559l198 447c37 83 74 113 151 113z" />
    <glyph glyph-name="uni0492" unicode="&#x492;" horiz-adv-x="815" 
d="M775 623h-494v-232h330v-102h-330v-289h-137v289h-129v102h129v335h631v-103z" />
    <glyph glyph-name="uni0492" unicode="&#x493;" horiz-adv-x="815" 
d="M775 623h-494v-232h330v-102h-330v-289h-137v289h-129v102h129v335h631v-103z" />
    <glyph glyph-name="uni049A" unicode="&#x49a;" horiz-adv-x="855" 
d="M746 103h111v-286h-129v183h-63l-278 329h-130v-329h-137v726h137v-294h124l263 294h155l-311 -325z" />
    <glyph glyph-name="uni049A" unicode="&#x49b;" horiz-adv-x="855" 
d="M746 103h111v-286h-129v183h-63l-278 329h-130v-329h-137v726h137v-294h124l263 294h155l-311 -325z" />
    <glyph glyph-name="uni04A2" unicode="&#x4a2;" horiz-adv-x="989" 
d="M869 103h110v-286h-129v183h-118v329h-475v-329h-137v726h137v-294h475v294h137v-623z" />
    <glyph glyph-name="uni04A2" unicode="&#x4a3;" horiz-adv-x="989" 
d="M869 103h110v-286h-129v183h-118v329h-475v-329h-137v726h137v-294h475v294h137v-623z" />
    <glyph glyph-name="uni04AE" unicode="&#x4ae;" horiz-adv-x="828" 
d="M823 726l-340 -457v-269h-137v265l-341 461h159l252 -344l252 344h155z" />
    <glyph glyph-name="uni04AE" unicode="&#x4af;" horiz-adv-x="828" 
d="M823 726l-340 -457v-269h-137v265l-341 461h159l252 -344l252 344h155z" />
    <glyph glyph-name="uni04B0" unicode="&#x4b0;" horiz-adv-x="828" 
d="M823 726l-261 -385h123v-102h-202v-239h-137v239h-203v102h121l-259 385h162l250 -384l250 384h156z" />
    <glyph glyph-name="uni04B0" unicode="&#x4b1;" horiz-adv-x="828" 
d="M823 726l-261 -385h123v-102h-202v-239h-137v239h-203v102h121l-259 385h162l250 -384l250 384h156z" />
    <glyph glyph-name="uni04BA" unicode="&#x4ba;" horiz-adv-x="936" 
d="M602 453c122 0 214 -29 214 -223v-230h-137v213c0 88 -8 137 -110 137h-312v-350h-137v726h137v-273h345z" />
    <glyph glyph-name="uni04BA" unicode="&#x4bb;" horiz-adv-x="936" 
d="M602 453c122 0 214 -29 214 -223v-230h-137v213c0 88 -8 137 -110 137h-312v-350h-137v726h137v-273h345z" />
    <glyph glyph-name="uni04D8" unicode="&#x4d8;" horiz-adv-x="902" 
d="M447 -12c-221 0 -377 105 -377 445h613c-9 167 -110 200 -285 200c-105 0 -218 -16 -291 -37v104c90 22 202 36 308 36c286 0 417 -93 417 -373c0 -251 -141 -375 -385 -375zM453 92c136 0 234 76 235 242h-466c0 -207 114 -242 231 -242z" />
    <glyph glyph-name="uni04D8" unicode="&#x4d9;" horiz-adv-x="902" 
d="M447 -12c-221 0 -377 105 -377 445h613c-9 167 -110 200 -285 200c-105 0 -218 -16 -291 -37v104c90 22 202 36 308 36c286 0 417 -93 417 -373c0 -251 -141 -375 -385 -375zM453 92c136 0 234 76 235 242h-466c0 -207 114 -242 231 -242z" />
    <glyph glyph-name="uni04E8" unicode="&#x4e8;" horiz-adv-x="999" 
d="M500 738c322 0 429 -166 429 -375c0 -210 -106 -375 -429 -375c-322 0 -430 165 -430 375c0 209 112 375 430 375zM500 626c-169 0 -264 -67 -285 -203h569c-19 136 -110 203 -284 203zM500 100c180 0 271 72 286 217h-573c15 -146 107 -217 287 -217z" />
    <glyph glyph-name="uni04E8" unicode="&#x4e9;" horiz-adv-x="999" 
d="M500 738c322 0 429 -166 429 -375c0 -210 -106 -375 -429 -375c-322 0 -430 165 -430 375c0 209 112 375 430 375zM500 626c-169 0 -264 -67 -285 -203h569c-19 136 -110 203 -284 203zM500 100c180 0 271 72 286 217h-573c15 -146 107 -217 287 -217z" />
    <glyph glyph-name="Alpha" unicode="&#x391;" horiz-adv-x="900" 
d="M727 0l-68 140h-421l-67 -140h-145l367 726h113l368 -726h-147zM289 245h319l-160 331z" />
    <glyph glyph-name="Alpha" unicode="&#x3b1;" horiz-adv-x="900" 
d="M727 0l-68 140h-421l-67 -140h-145l367 726h113l368 -726h-147zM289 245h319l-160 331z" />
    <glyph glyph-name="Beta" unicode="&#x392;" horiz-adv-x="917" 
d="M736 385c68 -22 105 -82 105 -174c0 -136 -97 -211 -271 -211h-450v726h460c150 0 233 -67 233 -187c0 -79 -27 -132 -77 -154zM678 523c0 66 -45 102 -126 102h-295v-204h295c81 0 126 36 126 102zM570 100c85 0 133 42 133 117c0 71 -48 110 -133 110h-313v-227h313z
" />
    <glyph glyph-name="Beta" unicode="&#x3b2;" horiz-adv-x="917" 
d="M736 385c68 -22 105 -82 105 -174c0 -136 -97 -211 -271 -211h-450v726h460c150 0 233 -67 233 -187c0 -79 -27 -132 -77 -154zM678 523c0 66 -45 102 -126 102h-295v-204h295c81 0 126 36 126 102zM570 100c85 0 133 42 133 117c0 71 -48 110 -133 110h-313v-227h313z
" />
    <glyph glyph-name="Gamma" unicode="&#x393;" horiz-adv-x="770" 
d="M727 726v-103h-470v-623h-137v726h607z" />
    <glyph glyph-name="Gamma" unicode="&#x3b3;" horiz-adv-x="770" 
d="M727 726v-103h-470v-623h-137v726h607z" />
    <glyph glyph-name="uni0394" unicode="&#x394;" horiz-adv-x="861" 
d="M488 726l323 -645v-81h-761v81l321 645h117zM424 576l-230 -472h466z" />
    <glyph glyph-name="uni0394" unicode="&#x3b4;" horiz-adv-x="861" 
d="M488 726l323 -645v-81h-761v81l321 645h117zM424 576l-230 -472h466z" />
    <glyph glyph-name="Epsilon" unicode="&#x395;" horiz-adv-x="850" 
d="M257 103h503v-103h-640v726h638v-103h-501v-210h408v-101h-408v-209z" />
    <glyph glyph-name="Epsilon" unicode="&#x3b5;" horiz-adv-x="850" 
d="M257 103h503v-103h-640v726h638v-103h-501v-210h408v-101h-408v-209z" />
    <glyph glyph-name="Zeta" unicode="&#x396;" horiz-adv-x="846" 
d="M253 103h525v-103h-710v93l516 530h-515v103h702v-93z" />
    <glyph glyph-name="Zeta" unicode="&#x3b6;" horiz-adv-x="846" 
d="M253 103h525v-103h-710v93l516 530h-515v103h702v-93z" />
    <glyph glyph-name="Eta" unicode="&#x397;" horiz-adv-x="989" 
d="M732 726h137v-726h-137v329h-475v-329h-137v726h137v-294h475v294z" />
    <glyph glyph-name="Eta" unicode="&#x3b7;" horiz-adv-x="989" 
d="M732 726h137v-726h-137v329h-475v-329h-137v726h137v-294h475v294z" />
    <glyph glyph-name="Theta" unicode="&#x398;" horiz-adv-x="999" 
d="M500 -12c-322 0 -430 165 -430 375c0 209 112 375 430 375c322 0 429 -166 429 -375c0 -210 -106 -375 -429 -375zM500 100c198 0 288 87 288 263s-90 263 -288 263c-192 0 -289 -87 -289 -263c0 -177 91 -263 289 -263zM297 327v103h416v-103h-416z" />
    <glyph glyph-name="Theta" unicode="&#x3b8;" horiz-adv-x="999" 
d="M500 -12c-322 0 -430 165 -430 375c0 209 112 375 430 375c322 0 429 -166 429 -375c0 -210 -106 -375 -429 -375zM500 100c198 0 288 87 288 263s-90 263 -288 263c-192 0 -289 -87 -289 -263c0 -177 91 -263 289 -263zM297 327v103h416v-103h-416z" />
    <glyph glyph-name="Iota" unicode="&#x399;" horiz-adv-x="377" 
d="M120 0v726h137v-726h-137z" />
    <glyph glyph-name="Iota" unicode="&#x3b9;" horiz-adv-x="377" 
d="M120 0v726h137v-726h-137z" />
    <glyph glyph-name="Kappa" unicode="&#x39a;" horiz-adv-x="877" 
d="M689 0l-308 345l-124 -104v-241h-137v726h137v-342l405 342h174l-361 -302l382 -424h-168z" />
    <glyph glyph-name="Kappa" unicode="&#x3ba;" horiz-adv-x="877" 
d="M689 0l-308 345l-124 -104v-241h-137v726h137v-342l405 342h174l-361 -302l382 -424h-168z" />
    <glyph glyph-name="Lambda" unicode="&#x39b;" horiz-adv-x="872" 
d="M846 0h-146l-270 561l-263 -561h-141l350 726h119z" />
    <glyph glyph-name="Lambda" unicode="&#x3bb;" horiz-adv-x="872" 
d="M846 0h-146l-270 561l-263 -561h-141l350 726h119z" />
    <glyph glyph-name="Mu" unicode="&#x39c;" horiz-adv-x="1148" 
d="M905 726h123v-726h-133v485l-263 -485h-108l-271 483v-483h-133v726h126l334 -596z" />
    <glyph glyph-name="Mu" unicode="&#x3bc;" horiz-adv-x="1148" 
d="M905 726h123v-726h-133v485l-263 -485h-108l-271 483v-483h-133v726h126l334 -596z" />
    <glyph glyph-name="Nu" unicode="&#x39d;" horiz-adv-x="1010" 
d="M757 726h133v-726h-122l-515 541v-541h-133v726h129l508 -536v536z" />
    <glyph glyph-name="Nu" unicode="&#x3bd;" horiz-adv-x="1010" 
d="M757 726h133v-726h-122l-515 541v-541h-133v726h129l508 -536v536z" />
    <glyph glyph-name="Xi" unicode="&#x39e;" horiz-adv-x="884" 
d="M120 623v103h645v-103h-645zM184 320v101h516v-101h-516zM111 0v103h662v-103h-662z" />
    <glyph glyph-name="Xi" unicode="&#x3be;" horiz-adv-x="884" 
d="M120 623v103h645v-103h-645zM184 320v101h516v-101h-516zM111 0v103h662v-103h-662z" />
    <glyph glyph-name="Omicron" unicode="&#x39f;" horiz-adv-x="999" 
d="M500 -12c-322 0 -430 165 -430 375c0 209 112 375 430 375c322 0 429 -166 429 -375c0 -210 -106 -375 -429 -375zM500 100c198 0 288 87 288 263s-90 263 -288 263c-192 0 -289 -87 -289 -263c0 -177 91 -263 289 -263z" />
    <glyph glyph-name="Omicron" unicode="&#x3bf;" horiz-adv-x="999" 
d="M500 -12c-322 0 -430 165 -430 375c0 209 112 375 430 375c322 0 429 -166 429 -375c0 -210 -106 -375 -429 -375zM500 100c198 0 288 87 288 263s-90 263 -288 263c-192 0 -289 -87 -289 -263c0 -177 91 -263 289 -263z" />
    <glyph glyph-name="Pi" unicode="&#x3a0;" horiz-adv-x="972" 
d="M120 0v726h732v-726h-137v623h-458v-623h-137z" />
    <glyph glyph-name="Pi" unicode="&#x3c0;" horiz-adv-x="972" 
d="M120 0v726h732v-726h-137v623h-458v-623h-137z" />
    <glyph glyph-name="Rho" unicode="&#x3a1;" horiz-adv-x="885" 
d="M518 726c211 0 322 -90 322 -253c0 -162 -111 -252 -322 -252h-261v-221h-137v726h398zM517 324c115 0 182 39 182 149c0 111 -67 150 -182 150h-260v-299h260z" />
    <glyph glyph-name="Rho" unicode="&#x3c1;" horiz-adv-x="885" 
d="M518 726c211 0 322 -90 322 -253c0 -162 -111 -252 -322 -252h-261v-221h-137v726h398zM517 324c115 0 182 39 182 149c0 111 -67 150 -182 150h-260v-299h260z" />
    <glyph glyph-name="Sigma" unicode="&#x3a3;" horiz-adv-x="861" 
d="M292 115h474v-115h-671v98l373 260l-373 268v100h669v-103h-455l281 -201v-103z" />
    <glyph glyph-name="Tau" unicode="&#x3a4;" horiz-adv-x="805" 
d="M762 726v-103h-291v-623h-137v623h-291v103h719z" />
    <glyph glyph-name="Tau" unicode="&#x3c4;" horiz-adv-x="805" 
d="M762 726v-103h-291v-623h-137v623h-291v103h719z" />
    <glyph glyph-name="Upsilon" unicode="&#x3a5;" horiz-adv-x="828" 
d="M823 726l-340 -457v-269h-137v265l-341 461h159l252 -344l252 344h155z" />
    <glyph glyph-name="Upsilon" unicode="&#x3c5;" horiz-adv-x="828" 
d="M823 726l-340 -457v-269h-137v265l-341 461h159l252 -344l252 344h155z" />
    <glyph glyph-name="Phi" unicode="&#x3a6;" horiz-adv-x="999" 
d="M929 363c0 -195 -92 -352 -365 -373v-109h-118v109c-280 17 -376 175 -376 373c0 197 99 355 376 373v110h118v-110c272 -21 365 -179 365 -373zM211 363c0 -160 74 -246 235 -261v521c-156 -15 -235 -101 -235 -260zM564 103c153 18 224 104 224 260s-71 242 -224 260
v-520z" />
    <glyph glyph-name="Phi" unicode="&#x3c6;" horiz-adv-x="999" 
d="M929 363c0 -195 -92 -352 -365 -373v-109h-118v109c-280 17 -376 175 -376 373c0 197 99 355 376 373v110h118v-110c272 -21 365 -179 365 -373zM211 363c0 -160 74 -246 235 -261v521c-156 -15 -235 -101 -235 -260zM564 103c153 18 224 104 224 260s-71 242 -224 260
v-520z" />
    <glyph glyph-name="Chi" unicode="&#x3a7;" horiz-adv-x="859" 
d="M844 0h-169l-247 280l-250 -280h-163l333 371l-313 355h169l229 -260l233 260h160l-313 -351z" />
    <glyph glyph-name="Chi" unicode="&#x3c7;" horiz-adv-x="859" 
d="M844 0h-169l-247 280l-250 -280h-163l333 371l-313 355h169l229 -260l233 260h160l-313 -351z" />
    <glyph glyph-name="Psi" unicode="&#x3a8;" horiz-adv-x="969" 
d="M754 726h130v-240c0 -213 -105 -284 -339 -288v-198h-130v198c-237 4 -340 77 -340 288v240h132v-214c0 -160 61 -201 208 -204v418h130v-418c154 3 209 47 209 204v214z" />
    <glyph glyph-name="Psi" unicode="&#x3c8;" horiz-adv-x="969" 
d="M754 726h130v-240c0 -213 -105 -284 -339 -288v-198h-130v198c-237 4 -340 77 -340 288v240h132v-214c0 -160 61 -201 208 -204v418h130v-418c154 3 209 47 209 204v214z" />
    <glyph glyph-name="uni03A9" unicode="&#x3a9;" horiz-adv-x="998" 
d="M85 0v104h129c-82 57 -124 166 -124 297c0 206 153 337 414 337s414 -131 414 -337c0 -130 -42 -240 -125 -297h130v-104h-335v86c111 55 186 152 186 314c0 174 -114 226 -270 226c-158 0 -271 -52 -271 -226c0 -163 76 -259 187 -314v-86h-335z" />
    <glyph glyph-name="uni03A9" unicode="&#x3c9;" horiz-adv-x="998" 
d="M85 0v104h129c-82 57 -124 166 -124 297c0 206 153 337 414 337s414 -131 414 -337c0 -130 -42 -240 -125 -297h130v-104h-335v86c111 55 186 152 186 314c0 174 -114 226 -270 226c-158 0 -271 -52 -271 -226c0 -163 76 -259 187 -314v-86h-335z" />
    <glyph glyph-name="Alphatonos" unicode="&#x386;" horiz-adv-x="909" 
d="M286 726l-136 -215h-120l94 215h162zM736 0l-68 140h-421l-67 -140h-145l367 726h113l368 -726h-147zM298 245h319l-160 331z" />
    <glyph glyph-name="Alphatonos" unicode="&#x3ac;" horiz-adv-x="909" 
d="M286 726l-136 -215h-120l94 215h162zM736 0l-68 140h-421l-67 -140h-145l367 726h113l368 -726h-147zM298 245h319l-160 331z" />
    <glyph glyph-name="Epsilontonos" unicode="&#x388;" horiz-adv-x="1018" 
d="M0 511l94 215h162l-136 -215h-120zM425 103h503v-103h-640v726h638v-103h-501v-210h408v-101h-408v-209z" />
    <glyph glyph-name="Epsilontonos" unicode="&#x3ad;" horiz-adv-x="1018" 
d="M0 511l94 215h162l-136 -215h-120zM425 103h503v-103h-640v726h638v-103h-501v-210h408v-101h-408v-209z" />
    <glyph glyph-name="Etatonos" unicode="&#x389;" horiz-adv-x="1157" 
d="M0 511l94 215h162l-136 -215h-120zM900 726h137v-726h-137v329h-475v-329h-137v726h137v-294h475v294z" />
    <glyph glyph-name="Etatonos" unicode="&#x3ae;" horiz-adv-x="1157" 
d="M0 511l94 215h162l-136 -215h-120zM900 726h137v-726h-137v329h-475v-329h-137v726h137v-294h475v294z" />
    <glyph glyph-name="Iotatonos" unicode="&#x38a;" horiz-adv-x="555" 
d="M0 511l94 215h162l-136 -215h-120zM298 0v726h137v-726h-137z" />
    <glyph glyph-name="Iotatonos" unicode="&#x3af;" horiz-adv-x="555" 
d="M0 511l94 215h162l-136 -215h-120zM298 0v726h137v-726h-137z" />
    <glyph glyph-name="Omicrontonos" unicode="&#x38c;" horiz-adv-x="1131" 
d="M632 -12c-322 0 -430 165 -430 375c0 209 112 375 430 375c322 0 429 -166 429 -375c0 -210 -106 -375 -429 -375zM0 511l94 215h162l-136 -215h-120zM632 100c198 0 288 87 288 263s-90 263 -288 263c-192 0 -289 -87 -289 -263c0 -177 91 -263 289 -263z" />
    <glyph glyph-name="Omicrontonos" unicode="&#x3cc;" horiz-adv-x="1131" 
d="M632 -12c-322 0 -430 165 -430 375c0 209 112 375 430 375c322 0 429 -166 429 -375c0 -210 -106 -375 -429 -375zM0 511l94 215h162l-136 -215h-120zM632 100c198 0 288 87 288 263s-90 263 -288 263c-192 0 -289 -87 -289 -263c0 -177 91 -263 289 -263z" />
    <glyph glyph-name="Upsilontonos" unicode="&#x38e;" horiz-adv-x="1115" 
d="M0 511l94 215h162l-136 -215h-120zM1110 726l-340 -457v-269h-137v265l-341 461h159l252 -344l252 344h155z" />
    <glyph glyph-name="Upsilontonos" unicode="&#x3cd;" horiz-adv-x="1115" 
d="M0 511l94 215h162l-136 -215h-120zM1110 726l-340 -457v-269h-137v265l-341 461h159l252 -344l252 344h155z" />
    <glyph glyph-name="Omegatonos" unicode="&#x38f;" horiz-adv-x="1130" 
d="M217 0v104h129c-82 57 -124 166 -124 297c0 206 153 337 414 337s414 -131 414 -337c0 -130 -42 -240 -125 -297h130v-104h-335v86c111 55 186 152 186 314c0 174 -114 226 -270 226c-158 0 -271 -52 -271 -226c0 -163 76 -259 187 -314v-86h-335zM0 511l94 215h162
l-136 -215h-120z" />
    <glyph glyph-name="Omegatonos" unicode="&#x3ce;" horiz-adv-x="1130" 
d="M217 0v104h129c-82 57 -124 166 -124 297c0 206 153 337 414 337s414 -131 414 -337c0 -130 -42 -240 -125 -297h130v-104h-335v86c111 55 186 152 186 314c0 174 -114 226 -270 226c-158 0 -271 -52 -271 -226c0 -163 76 -259 187 -314v-86h-335zM0 511l94 215h162
l-136 -215h-120z" />
    <glyph glyph-name="Iotadieresis" unicode="&#x3aa;" horiz-adv-x="377" 
d="M78 815c-47 0 -72 20 -72 73s25 75 72 75c45 0 71 -22 71 -75s-26 -73 -71 -73zM299 815c-46 0 -71 20 -71 73s25 75 71 75s72 -22 72 -75s-26 -73 -72 -73zM120 0v726h137v-726h-137z" />
    <glyph glyph-name="Iotadieresis" unicode="&#x3ca;" horiz-adv-x="377" 
d="M78 815c-47 0 -72 20 -72 73s25 75 72 75c45 0 71 -22 71 -75s-26 -73 -71 -73zM299 815c-46 0 -71 20 -71 73s25 75 71 75s72 -22 72 -75s-26 -73 -72 -73zM120 0v726h137v-726h-137z" />
    <glyph glyph-name="Upsilondieresis" unicode="&#x3ab;" horiz-adv-x="828" 
d="M314 815c-47 0 -72 20 -72 73s25 75 72 75c45 0 71 -22 71 -75s-26 -73 -71 -73zM535 815c-46 0 -71 20 -71 73s25 75 71 75s72 -22 72 -75s-26 -73 -72 -73zM823 726l-340 -457v-269h-137v265l-341 461h159l252 -344l252 344h155z" />
    <glyph glyph-name="Upsilondieresis" unicode="&#x3cb;" horiz-adv-x="828" 
d="M314 815c-47 0 -72 20 -72 73s25 75 72 75c45 0 71 -22 71 -75s-26 -73 -71 -73zM535 815c-46 0 -71 20 -71 73s25 75 71 75s72 -22 72 -75s-26 -73 -72 -73zM823 726l-340 -457v-269h-137v265l-341 461h159l252 -344l252 344h155z" />
    <glyph glyph-name="uni03C2" unicode="&#x3c2;" horiz-adv-x="861" 
d="M292 115h474v-115h-671v98l373 260l-373 268v100h669v-103h-455l281 -201v-103z" />
    <glyph glyph-name="sigma" unicode="&#x3c3;" horiz-adv-x="861" 
d="M292 115h474v-115h-671v98l373 260l-373 268v100h669v-103h-455l281 -201v-103z" />
    <glyph glyph-name="zero" unicode="0" horiz-adv-x="959" 
d="M480 -12c-302 0 -410 165 -410 375c0 209 112 375 410 375c302 0 409 -166 409 -375c0 -210 -106 -375 -409 -375zM480 100c178 0 268 87 268 263s-90 263 -268 263c-172 0 -269 -87 -269 -263c0 -177 91 -263 269 -263z" />
    <glyph glyph-name="one" unicode="1" horiz-adv-x="467" 
d="M210 0v622h-145v104h282v-726h-137z" />
    <glyph glyph-name="two" unicode="2" horiz-adv-x="797" 
d="M291 104h411v-104h-627v83l352 282c98 79 131 112 131 169c0 60 -26 101 -183 101c-88 0 -192 -8 -275 -33v104c79 25 179 32 259 32c221 0 336 -58 336 -193c0 -92 -20 -124 -147 -229z" />
    <glyph glyph-name="three" unicode="3" horiz-adv-x="793" 
d="M468 438c156 -6 240 -67 240 -211c0 -161 -165 -239 -398 -239c-74 0 -195 6 -285 22v104c81 -16 192 -22 257 -22c149 0 285 33 285 135c0 109 -76 113 -149 113h-154v70l217 212h-448v104h633v-92z" />
    <glyph glyph-name="four" unicode="4" horiz-adv-x="874" 
d="M819 277v-104h-135v-173h-137v173h-492v98l328 455h167l-333 -449h330v191h137v-191h135z" />
    <glyph glyph-name="five" unicode="5" horiz-adv-x="818" 
d="M331 -12c-79 0 -181 6 -271 22v104c81 -16 172 -22 249 -22c189 0 283 47 283 146c0 100 -88 102 -149 102h-373v386h625v-104h-494v-178h269c44 0 263 -2 263 -206c0 -168 -147 -250 -402 -250z" />
    <glyph glyph-name="six" unicode="6" horiz-adv-x="875" 
d="M461 458c195 0 344 -51 344 -229c0 -172 -149 -241 -355 -241c-225 0 -380 82 -380 347c0 279 168 403 430 403c101 0 200 -16 263 -47v-104c-59 30 -161 47 -259 47c-194 0 -281 -65 -293 -234c69 44 155 58 250 58zM450 92c147 0 224 47 224 137c0 84 -75 128 -218 128
c-154 0 -234 -31 -234 -131c0 -91 98 -134 228 -134z" />
    <glyph glyph-name="seven" unicode="7" horiz-adv-x="703" 
d="M25 726h633v-104l-329 -622h-150l333 622h-487v104z" />
    <glyph glyph-name="eight" unicode="8" horiz-adv-x="877" 
d="M718 389c66 -37 94 -102 94 -171c0 -196 -200 -230 -374 -230c-237 0 -373 56 -373 220c0 76 30 132 97 169c-38 27 -65 72 -65 142c0 132 109 219 346 219s347 -74 347 -203c0 -61 -26 -110 -72 -146zM438 634c-147 0 -203 -45 -203 -120c0 -71 49 -76 98 -79l265 -14h1
c35 26 53 61 53 103c0 73 -54 110 -214 110zM438 92c126 0 230 23 230 126c0 78 -63 100 -118 104l-263 18c-56 -26 -79 -64 -79 -117c0 -95 74 -131 230 -131z" />
    <glyph glyph-name="nine" unicode="9" horiz-adv-x="875" 
d="M425 738c225 0 380 -82 380 -347c0 -279 -168 -403 -430 -403c-101 0 -200 16 -263 47v104c59 -30 161 -47 259 -47c194 0 281 65 293 234c-69 -44 -155 -58 -250 -58c-195 0 -344 51 -344 229c0 172 149 241 355 241zM419 369c154 0 234 31 234 131
c0 91 -98 134 -228 134c-147 0 -224 -47 -224 -137c0 -84 75 -128 218 -128z" />
    <glyph glyph-name="uni00B9" unicode="&#xb9;" horiz-adv-x="307" 
d="M144 370v276h-79v87h177v-363h-98z" />
    <glyph glyph-name="uni00B2" unicode="&#xb2;" horiz-adv-x="447" 
d="M217 452h165v-82h-317v70l150 113c54 40 59 48 59 67c0 30 -39 35 -77 35c-43 0 -96 -7 -128 -17v82c37 11 88 18 137 18c109 0 174 -26 174 -110c0 -50 -29 -78 -75 -112z" />
    <glyph glyph-name="uni00B3" unicode="&#xb3;" horiz-adv-x="477" 
d="M305 590c75 -3 107 -44 107 -103c0 -96 -79 -122 -200 -122c-49 0 -100 7 -137 18v82c32 -10 85 -17 128 -17c48 0 102 5 102 40c0 29 -19 35 -48 35h-85v45l85 86h-187v79h319v-71z" />
    <glyph glyph-name="uni2074" unicode="&#x2074;" horiz-adv-x="440" 
d="M265 363v69h-240v69l164 225h107l-162 -218h131v93h90v-93h60v-76h-60v-69h-90z" />
    <glyph glyph-name="fraction" unicode="&#x2044;" horiz-adv-x="39" 
d="M-313 -12l537 751h121l-537 -751h-121z" />
    <glyph glyph-name="onehalf" unicode="&#xbd;" horiz-adv-x="884" 
d="M597 739h121l-537 -751h-121zM124 370v276h-79v87h177v-363h-98zM679 82h165v-82h-317v70l150 113c54 40 59 48 59 67c0 30 -39 35 -77 35c-43 0 -96 -7 -128 -17v82c37 11 88 18 137 18c109 0 174 -26 174 -110c0 -50 -29 -78 -75 -112z" />
    <glyph glyph-name="onequarter" unicode="&#xbc;" horiz-adv-x="884" 
d="M71 -12l537 751h121l-537 -751h-121zM128 370v276h-79v87h177v-363h-98zM678 0v69h-240v69l164 225h107l-162 -218h131v93h90v-93h60v-76h-60v-69h-90z" />
    <glyph glyph-name="threequarters" unicode="&#xbe;" horiz-adv-x="884" 
d="M659 739h121l-537 -751h-121zM153 448c48 0 102 5 102 40c0 29 -19 35 -48 35h-85v45l85 86h-187v79h319v-71l-84 -72c75 -3 107 -44 107 -103c0 -96 -79 -122 -200 -122c-49 0 -100 7 -137 18v82c32 -10 85 -17 128 -17zM804 145h60v-76h-60v-69h-90v69h-240v69l164 225
h107l-162 -218h131v93h90v-93z" />
    <glyph glyph-name="period" unicode="." horiz-adv-x="285" 
d="M142 -6c-49 0 -77 23 -77 76s28 76 77 76c51 0 78 -23 78 -76s-28 -76 -78 -76z" />
    <glyph glyph-name="comma" unicode="," horiz-adv-x="276" 
d="M133 146c50 0 78 -23 78 -76c0 -48 -10 -76 -28 -116l-70 -152h-78l71 195c-32 7 -50 30 -50 73c0 53 28 76 77 76z" />
    <glyph glyph-name="colon" unicode=":" horiz-adv-x="288" 
d="M142 301c-49 0 -77 23 -77 76s28 76 77 76c51 0 78 -23 78 -76s-28 -76 -78 -76zM145 -6c-49 0 -77 23 -77 76s28 76 77 76c51 0 78 -23 78 -76s-28 -76 -78 -76z" />
    <glyph glyph-name="semicolon" unicode=";" horiz-adv-x="276" 
d="M133 301c-49 0 -77 23 -77 76s28 76 77 76c51 0 78 -23 78 -76s-28 -76 -78 -76zM133 146c50 0 78 -23 78 -76c0 -48 -10 -76 -28 -116l-70 -152h-78l71 195c-32 7 -50 30 -50 73c0 53 28 76 77 76z" />
    <glyph glyph-name="ellipsis" unicode="&#x2026;" horiz-adv-x="865" 
d="M142 -6c-49 0 -77 23 -77 76s28 76 77 76c51 0 78 -23 78 -76s-28 -76 -78 -76zM432 -6c-49 0 -77 23 -77 76s28 76 77 76c51 0 78 -23 78 -76s-28 -76 -78 -76zM722 -6c-49 0 -77 23 -77 76s28 76 77 76c51 0 78 -23 78 -76s-28 -76 -78 -76z" />
    <glyph glyph-name="exclam" unicode="!" horiz-adv-x="405" 
d="M149 246l-17 480h141l-15 -480h-109zM202 -6c-49 0 -77 23 -77 76s28 76 77 76c51 0 78 -23 78 -76s-28 -76 -78 -76z" />
    <glyph glyph-name="exclamdown" unicode="&#xa1;" horiz-adv-x="405" 
d="M203 732c49 0 77 -23 77 -76s-28 -76 -77 -76c-51 0 -78 23 -78 76s28 76 78 76zM256 480l17 -480h-141l15 480h109z" />
    <glyph glyph-name="question" unicode="?" horiz-adv-x="704" 
d="M248 218v109c0 47 29 99 92 113l126 28c28 6 63 15 63 72c0 69 -52 93 -195 93c-92 0 -211 -10 -299 -28v104c103 21 219 28 302 28c236 0 332 -56 332 -194c0 -132 -89 -155 -152 -169l-118 -27c-26 -6 -33 -20 -33 -56v-73h-118zM307 -6c-49 0 -77 23 -77 76
s28 76 77 76c51 0 78 -23 78 -76s-28 -76 -78 -76z" />
    <glyph glyph-name="questiondown" unicode="&#xbf;" horiz-adv-x="704" 
d="M397 732c49 0 77 -23 77 -76s-28 -76 -77 -76c-51 0 -78 23 -78 76s28 76 78 76zM456 508v-109c0 -47 -29 -99 -92 -113l-126 -28c-28 -6 -63 -15 -63 -72c0 -69 52 -93 195 -93c92 0 211 10 299 28v-104c-103 -21 -219 -28 -302 -28c-236 0 -332 56 -332 194
c0 132 89 155 152 169l118 27c26 6 33 20 33 56v73h118z" />
    <glyph glyph-name="periodcentered" unicode="&#xb7;" horiz-adv-x="235" 
d="M117 286c-49 0 -77 23 -77 76s28 76 77 76c51 0 78 -23 78 -76s-28 -76 -78 -76z" />
    <glyph glyph-name="bullet" unicode="&#x2022;" horiz-adv-x="447" 
d="M223 244c-84 0 -138 46 -138 119s54 120 138 120c85 0 139 -47 139 -120s-54 -119 -139 -119z" />
    <glyph glyph-name="asterisk" unicode="*" horiz-adv-x="444" 
d="M409 522l-61 -86l-96 109l30 -151h-120l28 150l-94 -108l-61 86l104 63l-104 58l61 88l93 -107l-27 152h120l-28 -151l94 106l60 -88l-103 -58z" />
    <glyph glyph-name="numbersign" unicode="#" horiz-adv-x="931" 
d="M168 0l39 194h-162l29 92h160l38 161h-167l29 92h164l38 187h112l-40 -187h183l40 187h110l-40 -187h185l-28 -92h-182l-38 -161h188l-29 -92h-186l-39 -194h-112l40 194h-182l-40 -194h-110zM334 278h200l42 177h-200z" />
    <glyph glyph-name="slash" unicode="/" horiz-adv-x="525" 
d="M5 -40l381 792h134l-381 -792h-134z" />
    <glyph glyph-name="backslash" unicode="\" horiz-adv-x="525" 
d="M520 -40h-134l-381 792h134z" />
    <glyph glyph-name="parenleft" unicode="(" horiz-adv-x="440" 
d="M281 -174c-92 0 -161 20 -161 217v658c0 128 17 217 160 217h145v-108h-121c-35 0 -59 -9 -59 -83v-710c0 -37 0 -83 59 -83h121v-108h-144z" />
    <glyph glyph-name="parenright" unicode=")" horiz-adv-x="440" 
d="M15 -174v108h121c38 0 59 12 59 83v710c0 47 -5 83 -59 83h-121v108h145c94 0 160 -23 160 -217v-658c0 -129 -17 -217 -161 -217h-144z" />
    <glyph glyph-name="braceleft" unicode="{" horiz-adv-x="465" 
d="M303 -174c-101 0 -160 36 -160 237v190c0 43 -10 74 -60 77l-33 2v99l33 2c50 3 60 34 60 77v171c0 119 8 237 159 237h146v-108h-122c-37 0 -58 -12 -58 -80v-209c0 -66 -23 -127 -66 -147c43 -10 66 -65 66 -128v-232c0 -42 3 -80 58 -80h122v-108h-145z" />
    <glyph glyph-name="braceright" unicode="}" horiz-adv-x="465" 
d="M17 -174v108h122c37 0 58 12 58 80v209c0 66 23 127 66 147c-43 10 -66 65 -66 128v232c0 42 -3 80 -58 80h-122v108h145c101 0 160 -36 160 -237v-190c0 -43 10 -74 60 -77l33 -2v-99l-33 -2c-50 -3 -60 -34 -60 -77v-171c0 -119 -8 -237 -159 -237h-146z" />
    <glyph glyph-name="bracketleft" unicode="[" horiz-adv-x="439" 
d="M120 -174v1092h304v-108h-179v-876h179v-108h-304z" />
    <glyph glyph-name="bracketright" unicode="]" horiz-adv-x="440" 
d="M15 -174v108h180v876h-180v108h305v-1092h-305z" />
    <glyph glyph-name="hyphen" unicode="-" horiz-adv-x="371" 
d="M25 312v101h321v-101h-321z" />
    <glyph glyph-name="uni00AD" unicode="&#xad;" horiz-adv-x="461" 
d="M70 313v101h321v-101h-321z" />
    <glyph glyph-name="endash" unicode="&#x2013;" horiz-adv-x="464" 
d="M25 312v101h414v-101h-414z" />
    <glyph glyph-name="emdash" unicode="&#x2014;" horiz-adv-x="723" 
d="M25 312v101h673v-101h-673z" />
    <glyph glyph-name="uni2015" unicode="&#x2015;" horiz-adv-x="867" 
d="M161 312v101h673v-101h-673z" />
    <glyph glyph-name="underscore" unicode="_" horiz-adv-x="698" 
d="M2 -227v101h692v-101h-692z" />
    <glyph glyph-name="quotesinglbase" unicode="&#x201a;" horiz-adv-x="276" 
d="M133 146c50 0 78 -23 78 -76c0 -48 -10 -76 -28 -116l-70 -152h-78l71 195c-32 7 -50 30 -50 73c0 53 28 76 77 76z" />
    <glyph glyph-name="quotedblbase" unicode="&#x201e;" horiz-adv-x="523" 
d="M133 146c50 0 78 -23 78 -76c0 -48 -10 -76 -28 -116l-70 -152h-78l71 195c-32 7 -50 30 -50 73c0 53 28 76 77 76zM380 146c50 0 78 -23 78 -76c0 -48 -10 -76 -28 -116l-70 -152h-78l71 195c-32 7 -50 30 -50 73c0 53 28 76 77 76z" />
    <glyph glyph-name="quotedblleft" unicode="&#x201c;" horiz-adv-x="523" 
d="M163 776h78l-71 -195c32 -7 50 -30 50 -73c0 -53 -28 -76 -77 -76c-50 0 -78 23 -78 76c0 48 10 76 28 116zM417 581c32 -7 50 -30 50 -73c0 -53 -28 -76 -77 -76c-50 0 -78 23 -78 76c0 48 10 76 28 116l70 152h78z" />
    <glyph glyph-name="quotedblright" unicode="&#x201d;" horiz-adv-x="523" 
d="M133 786c50 0 78 -23 78 -76c0 -48 -10 -76 -28 -116l-70 -152h-78l71 195c-32 7 -50 30 -50 73c0 53 28 76 77 76zM380 786c50 0 78 -23 78 -76c0 -48 -10 -76 -28 -116l-70 -152h-78l71 195c-32 7 -50 30 -50 73c0 53 28 76 77 76z" />
    <glyph glyph-name="quoteleft" unicode="&#x2018;" horiz-adv-x="276" 
d="M170 581c32 -7 50 -30 50 -73c0 -53 -28 -76 -77 -76c-50 0 -78 23 -78 76c0 48 10 76 28 116l70 152h78z" />
    <glyph glyph-name="quoteright" unicode="&#x2019;" horiz-adv-x="276" 
d="M133 786c50 0 78 -23 78 -76c0 -48 -10 -76 -28 -116l-70 -152h-78l71 195c-32 7 -50 30 -50 73c0 53 28 76 77 76z" />
    <glyph glyph-name="guillemotleft" unicode="&#xab;" horiz-adv-x="807" 
d="M321 597l59 -72l-181 -172l181 -162l-67 -72l-258 197v77zM752 525l-181 -172l181 -162l-67 -72l-258 197v77l266 204z" />
    <glyph glyph-name="guillemotright" unicode="&#xbb;" horiz-adv-x="807" 
d="M55 525l67 72l258 -197v-77l-266 -204l-59 72l181 172zM494 597l258 -197v-77l-266 -204l-59 72l181 172l-181 162z" />
    <glyph glyph-name="guilsinglleft" unicode="&#x2039;" horiz-adv-x="435" 
d="M380 525l-181 -172l181 -162l-67 -72l-258 197v77l266 204z" />
    <glyph glyph-name="guilsinglright" unicode="&#x203a;" horiz-adv-x="435" 
d="M122 597l258 -197v-77l-266 -204l-59 72l181 172l-181 162z" />
    <glyph glyph-name="quotedbl" unicode="&#x22;" horiz-adv-x="472" 
d="M82 451l-17 325h122l-15 -325h-90zM302 451l-17 325h122l-15 -325h-90z" />
    <glyph glyph-name="quotesingle" unicode="'" horiz-adv-x="252" 
d="M82 451l-17 325h122l-15 -325h-90z" />
    <glyph glyph-name="anoteleia" unicode="&#x387;" horiz-adv-x="235" 
d="M117 269c-49 0 -77 23 -77 76s28 76 77 76c51 0 78 -23 78 -76s-28 -76 -78 -76z" />
    <glyph glyph-name="uni037E" unicode="&#x37e;" horiz-adv-x="276" 
d="M133 301c-49 0 -77 23 -77 76s28 76 77 76c51 0 78 -23 78 -76s-28 -76 -78 -76zM133 146c50 0 78 -23 78 -76c0 -48 -10 -76 -28 -116l-70 -152h-78l71 195c-32 7 -50 30 -50 73c0 53 28 76 77 76z" />
    <glyph glyph-name="uni2003" unicode="&#x2003;" horiz-adv-x="723" 
 />
    <glyph glyph-name="uni2002" unicode="&#x2002;" horiz-adv-x="464" 
 />
    <glyph glyph-name="uni200A" unicode="&#x200a;" horiz-adv-x="113" 
 />
    <glyph glyph-name="uni00A0" unicode="&#xa0;" horiz-adv-x="450" 
 />
    <glyph glyph-name="uni2009" unicode="&#x2009;" horiz-adv-x="225" 
 />
    <glyph glyph-name="cent" unicode="&#xa2;" horiz-adv-x="647" 
d="M592 512c-49 5 -98 7 -147 8v-266c49 0 98 2 147 7v-101c-49 -4 -98 -6 -147 -7v-191h-106v193c-175 9 -269 55 -269 232c0 173 94 222 269 232v202h106v-200c49 -1 98 -4 147 -8v-101zM199 387c0 -104 36 -127 140 -132v263c-106 -5 -140 -29 -140 -131z" />
    <glyph glyph-name="currency" unicode="&#xa4;" horiz-adv-x="828" 
d="M682 352c0 -54 -11 -96 -29 -128l110 -90l-64 -79l-122 98c-45 -23 -102 -31 -163 -31c-58 0 -115 9 -162 33l-123 -100l-64 79l112 91c-20 32 -31 74 -31 127s10 96 29 128l-110 89l64 79l120 -98c45 23 101 32 165 32s121 -9 165 -31l120 97l64 -79l-110 -89
c19 -32 29 -74 29 -128zM415 220c80 0 145 10 145 129c0 123 -70 134 -146 134s-146 -11 -146 -135c0 -117 63 -128 147 -128z" />
    <glyph glyph-name="dollar" unicode="$" horiz-adv-x="813" 
d="M765 209c0 -158 -129 -208 -305 -219v-188h-106v186c-105 1 -201 11 -277 27v104c75 -15 177 -26 277 -28v233l-70 10c-81 12 -236 39 -236 199c0 147 132 192 306 202v180h106v-177c97 0 175 -7 253 -32v-104c-78 23 -156 32 -253 33v-215l105 -16
c82 -12 200 -44 200 -195zM303 443l51 -8v198c-107 -6 -170 -29 -170 -103c0 -67 53 -77 119 -87zM460 93c97 8 170 35 170 119c0 67 -41 77 -110 87l-60 9v-215z" />
    <glyph glyph-name="Euro" unicode="&#x20ac;" horiz-adv-x="871" 
d="M529 635c-164 0 -261 -44 -299 -149h286v-91h-304c-1 -10 -1 -21 -1 -32c0 -18 1 -34 2 -50h303v-91h-279c42 -92 138 -131 292 -131c105 0 185 8 256 22v-104c-70 -14 -149 -21 -254 -21c-229 0 -388 67 -441 234h-117v91h99c-1 16 -2 33 -2 50c0 11 0 22 1 32h-98v91
h112c47 180 209 252 446 252c104 0 184 -7 254 -21v-104c-71 14 -152 22 -256 22z" />
    <glyph glyph-name="florin" unicode="&#x192;" horiz-adv-x="531" 
d="M34 -259c-27 0 -60 4 -89 11v97c27 -4 50 -6 69 -6c73 0 98 31 98 130v530c0 140 39 235 221 235c48 0 85 -4 133 -14v-102c-35 10 -69 14 -106 14c-93 0 -123 -30 -123 -148v-167h194v-98h-193v-254c0 -164 -67 -228 -204 -228z" />
    <glyph glyph-name="sterling" unicode="&#xa3;" horiz-adv-x="835" 
d="M55 0v104h109v299c0 199 59 335 354 335c68 0 137 -6 204 -21v-104c-70 17 -133 21 -191 21c-155 0 -230 -26 -230 -231h279v-102h-279v-197h444v-104h-690z" />
    <glyph glyph-name="yen" unicode="&#xa5;" horiz-adv-x="828" 
d="M823 726l-296 -398h104v-91h-148v-42h148v-91h-148v-104h-137v104h-148v91h148v42h-148v91h101l-294 398h159l252 -344l252 344h155z" />
    <glyph glyph-name="plus" unicode="+" horiz-adv-x="719" 
d="M299 40v194h-194v102h194v197h122v-197h193v-102h-193v-194h-122z" />
    <glyph glyph-name="minus" unicode="&#x2212;" horiz-adv-x="719" 
d="M105 234v102h509v-102h-509z" />
    <glyph glyph-name="multiply" unicode="&#xd7;" horiz-adv-x="669" 
d="M564 433l-152 -152l152 -152l-78 -77l-151 152l-152 -152l-78 77l152 152l-152 152l78 77l152 -151l151 151z" />
    <glyph glyph-name="divide" unicode="&#xf7;" horiz-adv-x="719" 
d="M359 408c-49 0 -77 23 -77 76s28 76 77 76c50 0 78 -23 78 -76s-28 -76 -78 -76zM105 234v102h509v-102h-509zM359 10c-49 0 -77 23 -77 76s28 76 77 76c50 0 78 -23 78 -76s-28 -76 -78 -76z" />
    <glyph glyph-name="equal" unicode="=" horiz-adv-x="719" 
d="M105 380v102h509v-102h-509zM105 99v102h509v-102h-509z" />
    <glyph glyph-name="notequal" unicode="&#x2260;" horiz-adv-x="719" 
d="M614 380h-166l-75 -179h241v-102h-284l-63 -149h-92l63 149h-133v102h176l76 179h-252v102h295l59 140h91l-59 -140h123v-102z" />
    <glyph glyph-name="greater" unicode="&#x3e;" horiz-adv-x="701" 
d="M140 -9l-35 95l378 198l-378 186l36 97l455 -220v-130z" />
    <glyph glyph-name="less" unicode="&#x3c;" horiz-adv-x="701" 
d="M561 -9l-456 226v130l454 220l37 -97l-377 -186l377 -198z" />
    <glyph glyph-name="greaterequal" unicode="&#x2265;" horiz-adv-x="719" 
d="M155 206l-32 93l324 147l-324 149l35 92l436 -185v-112zM105 0v102h509v-102h-509z" />
    <glyph glyph-name="lessequal" unicode="&#x2264;" horiz-adv-x="719" 
d="M565 206l-440 184v112l437 185l34 -92l-324 -149l324 -147zM105 0v102h509v-102h-509z" />
    <glyph glyph-name="plusminus" unicode="&#xb1;" horiz-adv-x="719" 
d="M299 210v184h-194v102h194v187h122v-187h193v-102h-193v-184h-122zM105 0v102h509v-102h-509z" />
    <glyph glyph-name="approxequal" unicode="&#x2248;" horiz-adv-x="762" 
d="M169 334l-64 68c51 90 117 128 182 128c38 0 72 -12 105 -31l30 -17c21 -12 49 -26 76 -26c32 0 68 24 94 74l65 -60c-40 -72 -95 -115 -153 -115c-50 0 -82 17 -114 33l-28 14c-24 12 -52 23 -73 23c-43 0 -85 -30 -120 -91zM169 54l-64 68c49 87 115 128 182 128
c42 0 77 -16 104 -31l31 -17c18 -10 48 -26 76 -26c32 0 68 24 94 74l65 -60c-40 -72 -95 -115 -153 -115c-51 0 -84 18 -114 33l-28 14c-22 11 -52 23 -73 23c-43 0 -84 -29 -120 -91z" />
    <glyph glyph-name="logicalnot" unicode="&#xac;" horiz-adv-x="719" 
d="M492 80v300h-387v102h509v-402h-122z" />
    <glyph glyph-name="asciitilde" unicode="~" horiz-adv-x="817" 
d="M543 263c-55 0 -91 17 -127 39l-34 21c-29 18 -62 32 -85 32c-44 0 -84 -33 -121 -89l-71 73c54 88 119 126 187 126c46 0 86 -18 125 -42l34 -21c34 -21 60 -36 86 -36c37 0 69 32 96 92l79 -54c-38 -100 -106 -141 -169 -141z" />
    <glyph glyph-name="asciicircum" unicode="^" horiz-adv-x="585" 
d="M529 392h-124l-113 257l-113 -257h-124l173 334h128z" />
    <glyph glyph-name="infinity" unicode="&#x221e;" horiz-adv-x="967" 
d="M685 588c114 0 207 -77 207 -222c0 -157 -100 -221 -205 -221h-41c-61 0 -129 26 -160 75c-34 -47 -89 -75 -168 -75h-37c-113 0 -206 73 -206 221c0 155 100 222 206 222h43c58 0 132 -30 166 -71c33 41 88 71 157 71h38zM423 361l13 70c-24 28 -68 61 -121 61h-10
c-60 0 -99 -40 -99 -126c0 -93 46 -125 99 -125h10c49 0 92 33 108 120zM663 241c59 0 99 36 99 124c0 92 -45 127 -99 127h-9c-39 0 -86 -22 -104 -123l-12 -67c25 -32 69 -61 115 -61h10z" />
    <glyph glyph-name="integral" unicode="&#x222b;" horiz-adv-x="493" 
d="M45 -259v104h103c51 0 103 0 103 85c0 44 -9 73 -22 124l-80 308c-14 54 -24 129 -24 182c0 116 75 182 181 182h142v-104h-103c-53 0 -104 -11 -104 -85c0 -51 12 -91 21 -125l79 -289c16 -59 26 -116 26 -193c0 -124 -75 -189 -180 -189h-142z" />
    <glyph glyph-name="uni2126" unicode="&#x2126;" horiz-adv-x="998" 
d="M85 0v104h129c-82 57 -124 166 -124 297c0 206 153 337 414 337s414 -131 414 -337c0 -130 -42 -240 -125 -297h130v-104h-335v86c111 55 186 152 186 314c0 174 -114 226 -270 226c-158 0 -271 -52 -271 -226c0 -163 76 -259 187 -314v-86h-335z" />
    <glyph glyph-name="uni2206" unicode="&#x2206;" horiz-adv-x="861" 
d="M488 726l323 -645v-81h-761v81l321 645h117zM424 576l-230 -472h466z" />
    <glyph glyph-name="product" unicode="&#x220f;" horiz-adv-x="972" 
d="M171 -200v823h-128v103h886v-103h-129v-823h-137v823h-355v-823h-137z" />
    <glyph glyph-name="summation" unicode="&#x2211;" horiz-adv-x="781" 
d="M235 -85h491v-115h-671v98l375 355l-375 373v100h669v-103h-485l311 -301v-103z" />
    <glyph glyph-name="radical" unicode="&#x221a;" horiz-adv-x="678" 
d="M515 726h137l-301 -726h-125l-130 297h-91v103h178l104 -241z" />
    <glyph glyph-name="uni00B5" unicode="&#xb5;" horiz-adv-x="710" 
d="M90 -274v727h126v-235c0 -47 8 -72 17 -85c17 -25 45 -32 86 -32h175v352h126v-453h-287c-35 0 -61 2 -81 9c-15 5 -28 18 -36 31v-314h-126z" />
    <glyph glyph-name="partialdiff" unicode="&#x2202;" horiz-adv-x="880" 
d="M450 -12c-275 0 -380 90 -380 257c0 198 145 199 287 199h304c-6 118 -90 178 -197 178h-326v104h348c206 0 324 -122 324 -360c0 -246 -126 -378 -360 -378zM450 92c89 0 212 10 216 253h-306c-109 0 -150 -1 -150 -96c0 -129 100 -157 240 -157z" />
    <glyph glyph-name="percent" unicode="%" horiz-adv-x="1025" 
d="M239 370c-135 0 -194 60 -194 183c0 125 59 185 194 185s193 -60 193 -185c0 -123 -58 -183 -193 -183zM192 -12l527 750h131l-527 -750h-131zM239 452c61 0 87 33 87 101c0 69 -26 103 -87 103s-87 -34 -87 -103c0 -68 25 -101 87 -101zM787 -12
c-135 0 -194 60 -194 183c0 125 59 185 194 185s193 -60 193 -185c0 -123 -58 -183 -193 -183zM787 70c61 0 87 33 87 101c0 69 -26 103 -87 103s-87 -34 -87 -103c0 -68 25 -101 87 -101z" />
    <glyph glyph-name="perthousand" unicode="&#x2030;" horiz-adv-x="1495" 
d="M239 370c-135 0 -194 60 -194 183c0 125 59 185 194 185s193 -60 193 -185c0 -123 -58 -183 -193 -183zM192 -12l527 750h131l-527 -750h-131zM239 452c61 0 87 33 87 101c0 69 -26 103 -87 103s-87 -34 -87 -103c0 -68 25 -101 87 -101zM787 -12
c-135 0 -194 60 -194 183c0 125 59 185 194 185s193 -60 193 -185c0 -123 -58 -183 -193 -183zM1257 -12c-135 0 -194 60 -194 183c0 125 59 185 194 185s193 -60 193 -185c0 -123 -58 -183 -193 -183zM787 70c61 0 87 33 87 101c0 69 -26 103 -87 103s-87 -34 -87 -103
c0 -68 25 -101 87 -101zM1257 70c61 0 87 33 87 101c0 69 -26 103 -87 103s-87 -34 -87 -103c0 -68 25 -101 87 -101z" />
    <glyph glyph-name="lozenge" unicode="&#x25ca;" horiz-adv-x="882" 
d="M383 0l-254 344v36l254 345h124l246 -345v-36l-246 -344h-124zM443 90h5l190 272l-190 272h-5l-199 -272z" />
    <glyph glyph-name="uniF8FF" unicode="&#xf8ff;" horiz-adv-x="570" 
d="M141 594c-17 0 -30 13 -30 31c0 17 13 30 30 30c18 0 31 -13 31 -30c0 -18 -13 -31 -31 -31zM207 594c-17 0 -30 13 -30 31c0 17 13 30 30 30c18 0 31 -13 31 -30c0 -18 -13 -31 -31 -31zM273 594c-17 0 -30 13 -30 31c0 17 13 30 30 30c18 0 31 -13 31 -30
c0 -18 -13 -31 -31 -31zM339 594c-17 0 -30 13 -30 31c0 17 13 30 30 30c18 0 31 -13 31 -30c0 -18 -13 -31 -31 -31zM405 594c-17 0 -30 13 -30 31c0 17 13 30 30 30c18 0 31 -13 31 -30c0 -18 -13 -31 -31 -31zM471 594c-17 0 -30 13 -30 31c0 17 13 30 30 30
c18 0 31 -13 31 -30c0 -18 -13 -31 -31 -31zM141 528c-17 0 -30 13 -30 31c0 17 13 30 30 30c18 0 31 -13 31 -30c0 -18 -13 -31 -31 -31zM141 462c-17 0 -30 13 -30 31c0 17 13 30 30 30c18 0 31 -13 31 -30c0 -18 -13 -31 -31 -31zM273 462c-17 0 -30 13 -30 31
c0 17 13 30 30 30c18 0 31 -13 31 -30c0 -18 -13 -31 -31 -31zM339 462c-17 0 -30 13 -30 31c0 17 13 30 30 30c18 0 31 -13 31 -30c0 -18 -13 -31 -31 -31zM405 462c-17 0 -30 13 -30 31c0 17 13 30 30 30c18 0 31 -13 31 -30c0 -18 -13 -31 -31 -31zM471 462
c-17 0 -30 13 -30 31c0 17 13 30 30 30c18 0 31 -13 31 -30c0 -18 -13 -31 -31 -31zM141 396c-17 0 -30 13 -30 31c0 17 13 30 30 30c18 0 31 -13 31 -30c0 -18 -13 -31 -31 -31zM273 396c-17 0 -30 13 -30 31c0 17 13 30 30 30c18 0 31 -13 31 -30c0 -18 -13 -31 -31 -31z
M141 330c-17 0 -30 13 -30 31c0 17 13 30 30 30c18 0 31 -13 31 -30c0 -18 -13 -31 -31 -31zM273 330c-17 0 -30 13 -30 31c0 17 13 30 30 30c18 0 31 -13 31 -30c0 -18 -13 -31 -31 -31zM339 330c-17 0 -30 13 -30 31c0 17 13 30 30 30c18 0 31 -13 31 -30
c0 -18 -13 -31 -31 -31zM405 330c-17 0 -30 13 -30 31c0 17 13 30 30 30c18 0 31 -13 31 -30c0 -18 -13 -31 -31 -31zM471 330c-17 0 -30 13 -30 31c0 17 13 30 30 30c18 0 31 -13 31 -30c0 -18 -13 -31 -31 -31zM141 264c-17 0 -30 13 -30 31c0 17 13 30 30 30
c18 0 31 -13 31 -30c0 -18 -13 -31 -31 -31zM471 264c-17 0 -30 13 -30 31c0 17 13 30 30 30c18 0 31 -13 31 -30c0 -18 -13 -31 -31 -31zM141 198c-17 0 -30 13 -30 31c0 17 13 30 30 30c18 0 31 -13 31 -30c0 -18 -13 -31 -31 -31zM273 198c-17 0 -30 13 -30 31
c0 17 13 30 30 30c18 0 31 -13 31 -30c0 -18 -13 -31 -31 -31zM339 198c-17 0 -30 13 -30 31c0 17 13 30 30 30c18 0 31 -13 31 -30c0 -18 -13 -31 -31 -31zM405 198c-17 0 -30 13 -30 31c0 17 13 30 30 30c18 0 31 -13 31 -30c0 -18 -13 -31 -31 -31zM471 198
c-17 0 -30 13 -30 31c0 17 13 30 30 30c18 0 31 -13 31 -30c0 -18 -13 -31 -31 -31zM141 132c-17 0 -30 13 -30 31c0 17 13 30 30 30c18 0 31 -13 31 -30c0 -18 -13 -31 -31 -31zM141 66c-17 0 -30 13 -30 31c0 17 13 30 30 30c18 0 31 -13 31 -30c0 -18 -13 -31 -31 -31z
M273 66c-17 0 -30 13 -30 31c0 17 13 30 30 30c18 0 31 -13 31 -30c0 -18 -13 -31 -31 -31zM141 0c-17 0 -30 13 -30 31c0 17 13 30 30 30c18 0 31 -13 31 -30c0 -18 -13 -31 -31 -31zM207 0c-17 0 -30 13 -30 31c0 17 13 30 30 30c18 0 31 -13 31 -30
c0 -18 -13 -31 -31 -31zM273 0c-17 0 -30 13 -30 31c0 17 13 30 30 30c18 0 31 -13 31 -30c0 -18 -13 -31 -31 -31z" />
    <glyph glyph-name="at" unicode="@" horiz-adv-x="1023" 
d="M508 538h200v-275c95 8 131 75 131 166c0 173 -147 213 -316 213c-188 0 -335 -40 -335 -286c0 -216 164 -275 368 -275c106 0 217 12 293 32v-92c-82 -21 -188 -33 -293 -33c-273 0 -486 96 -486 370c0 283 194 381 452 381c240 0 431 -78 431 -309
c0 -150 -110 -251 -273 -251h-172c-123 0 -194 60 -194 179s71 180 194 180zM592 258v201h-48c-77 0 -111 -26 -111 -101s34 -100 111 -100h48z" />
    <glyph glyph-name="ampersand" unicode="&#x26;" horiz-adv-x="961" 
d="M966 0h-192l-83 58c-72 -46 -137 -70 -286 -70c-226 0 -350 44 -350 190c0 103 74 167 165 207c-79 58 -109 107 -109 175c0 141 120 178 292 178c166 0 288 -28 288 -169c0 -85 -45 -136 -227 -210l198 -142c15 26 29 80 29 112h123c0 -62 -23 -133 -57 -180zM403 624
c-93 0 -158 -3 -158 -63c0 -28 31 -68 83 -105l34 -24c131 34 200 83 200 129c0 62 -76 63 -159 63zM397 94c107 0 161 13 193 34l-272 188c-67 -26 -132 -63 -132 -128c0 -81 83 -94 211 -94z" />
    <glyph glyph-name="paragraph" unicode="&#xb6;" horiz-adv-x="794" 
d="M366 -172v456h-80c-150 0 -216 77 -216 221c0 152 73 221 216 221h388v-898h-115v814h-77v-814h-116z" />
    <glyph glyph-name="section" unicode="&#xa7;" horiz-adv-x="665" 
d="M520 63c45 -29 73 -68 73 -132c0 -123 -105 -168 -284 -168c-74 0 -124 8 -214 25v97c67 -17 150 -29 221 -29c97 0 160 22 160 78c0 39 -31 54 -47 61l-238 105c-70 31 -126 87 -126 172c0 67 34 127 81 163c-43 28 -73 75 -73 137c0 128 129 166 285 166
c67 0 151 -7 213 -22v-93c-51 16 -127 23 -195 23c-103 0 -187 -16 -187 -85c0 -35 21 -47 55 -61l230 -98c43 -18 126 -59 126 -175c0 -76 -35 -135 -80 -164zM424 102c35 26 64 70 64 127c0 53 -26 64 -53 76l-203 89c-34 -26 -60 -59 -60 -110c0 -61 38 -81 64 -93z" />
    <glyph glyph-name="copyright" unicode="&#xa9;" horiz-adv-x="1002" 
d="M501 -12c-285 0 -431 146 -431 375s146 375 431 375s431 -146 431 -375s-146 -375 -431 -375zM501 65c223 0 336 116 336 298s-113 297 -336 297s-336 -115 -336 -297s113 -298 336 -298zM515 173c-162 0 -237 56 -237 194c0 133 83 187 237 187c39 0 82 -2 128 -6v-73
c-46 4 -85 7 -120 7c-100 0 -149 -29 -149 -119c0 -87 63 -117 165 -117c32 0 67 2 104 6v-73c-48 -4 -90 -6 -128 -6z" />
    <glyph glyph-name="registered" unicode="&#xae;" horiz-adv-x="1002" 
d="M501 -12c-285 0 -431 146 -431 375s146 375 431 375s431 -146 431 -375s-146 -375 -431 -375zM501 65c223 0 336 116 336 298s-113 297 -336 297s-336 -115 -336 -297s113 -298 336 -298zM312 179v369h263c72 0 119 -36 119 -134c0 -73 -27 -118 -75 -127
c18 -7 28 -24 42 -43l47 -65h-110l-51 79c-12 19 -20 25 -48 25h-88v-104h-99zM411 355h138c22 0 46 17 46 59c0 43 -19 61 -46 61h-138v-120z" />
    <glyph glyph-name="trademark" unicode="&#x2122;" horiz-adv-x="1042" 
d="M179 358v276h-144v92h395v-92h-144v-276h-107zM482 358v368h110l156 -253l152 253h107v-368h-105v228l-125 -219h-58l-131 217v-226h-106z" />
    <glyph glyph-name="degree" unicode="&#xb0;" horiz-adv-x="373" 
d="M155 436c-78 0 -135 61 -135 145s57 145 135 145h63c78 0 135 -61 135 -145s-57 -145 -135 -145h-63zM173 517h27c24 0 56 11 56 64s-31 64 -56 64h-27c-22 0 -56 -11 -56 -64s33 -64 56 -64z" />
    <glyph glyph-name="bar" unicode="|" horiz-adv-x="454" 
d="M165 -317v1113h122v-1113h-122z" />
    <glyph glyph-name="brokenbar" unicode="&#xa6;" horiz-adv-x="454" 
d="M165 343v453h122v-453h-122zM165 -317v462h122v-462h-122z" />
    <glyph glyph-name="dagger" unicode="&#x2020;" horiz-adv-x="685" 
d="M274 -317l11 660l-215 -9v112l214 -9l-10 345h137l-11 -345l215 9v-112l-216 9l12 -660h-137z" />
    <glyph glyph-name="uni2113" unicode="&#x2113;" horiz-adv-x="344" 
d="M111 0v726h122v-726h-122z" />
    <glyph glyph-name="daggerdbl" unicode="&#x2021;" horiz-adv-x="685" 
d="M275 -317l8 282l-213 -9v112l215 -9v333l-215 -9v112l214 -9l-10 296h137l-11 -296l215 9v-112l-216 9v-333l216 9v-112l-214 9l10 -282h-136z" />
    <glyph glyph-name="estimated" unicode="&#x212e;" horiz-adv-x="813" 
d="M407 -4c-208 0 -378 151 -378 339s170 339 378 339c207 0 376 -151 376 -339v-8h-611c-3 0 -5 -1 -5 -5v-185c0 -8 4 -15 9 -22c58 -60 141 -99 232 -99c97 0 184 44 242 112h55c-69 -80 -177 -132 -298 -132zM172 345h468c3 0 5 2 5 5v187c0 8 -4 16 -10 22
c-58 58 -139 95 -227 95c-91 0 -172 -38 -231 -98c-6 -6 -10 -15 -10 -24v-182c0 -3 2 -5 5 -5z" />
    <glyph glyph-name="uni2116" unicode="&#x2116;" horiz-adv-x="1433" 
d="M757 190v536h133v-726h-122l-515 541v-541h-133v726h129zM1198 437c-134 0 -183 52 -183 145c0 92 49 144 183 144s183 -52 183 -144c0 -93 -49 -145 -183 -145zM1198 662c-66 0 -88 -20 -88 -80c0 -61 22 -81 88 -81s88 20 88 81c0 60 -23 80 -88 80zM1019 310v75h352
v-75h-352z" />
    <glyph glyph-name="uni0374" unicode="&#x374;" horiz-adv-x="775" 
d="M259 525l94 215h162l-136 -215h-120z" />
    <glyph glyph-name="uni0375" unicode="&#x375;" horiz-adv-x="775" 
d="M259 -293l136 215h120l-95 -215h-161z" />
    <glyph glyph-name="uni0308" unicode="&#x308;" 
d="M-418 542c-47 0 -72 20 -72 73s25 75 72 75c45 0 71 -22 71 -75s-26 -73 -71 -73zM-197 542c-46 0 -71 20 -71 73s25 75 71 75s72 -22 72 -75s-26 -73 -72 -73z" />
    <glyph glyph-name="uni0307" unicode="&#x307;" 
d="M-462 543c-49 0 -77 19 -77 72s28 75 77 75c50 0 78 -22 78 -75s-28 -72 -78 -72z" />
    <glyph glyph-name="gravecomb" unicode="&#x300;" 
d="M-373 545l-143 185h161l102 -185h-120z" />
    <glyph glyph-name="acutecomb" unicode="&#x301;" 
d="M-511 545l102 185h161l-144 -185h-119z" />
    <glyph glyph-name="uni030B" unicode="&#x30b;" 
d="M-473 545l80 185h148l-114 -185h-114zM-255 545l81 185h147l-114 -185h-114z" />
    <glyph glyph-name="uni030C.alt" 
d="M-329 480l29 246h127l-60 -246h-96z" />
    <glyph glyph-name="uni0302" unicode="&#x302;" 
d="M-457 531l140 188h108l139 -188h-126l-64 100h-7l-64 -100h-126z" />
    <glyph glyph-name="uni030C" unicode="&#x30c;" 
d="M-457 727h126l64 -100h7l64 100h126l-139 -188h-108z" />
    <glyph glyph-name="uni0306" unicode="&#x306;" 
d="M-270 554c-103 0 -174 56 -180 170h100c6 -54 36 -89 87 -89h6c51 0 82 35 87 89h100c-7 -116 -78 -170 -179 -170h-21z" />
    <glyph glyph-name="uni030A" unicode="&#x30a;" 
d="M-210 536c-49 0 -94 20 -94 108c0 72 34 108 94 108h46c50 0 94 -20 94 -108c0 -73 -37 -108 -94 -108h-46zM-197 596h20c26 0 39 16 39 48s-13 48 -39 48h-20c-25 0 -39 -16 -39 -48s14 -48 39 -48z" />
    <glyph glyph-name="tildecomb" unicode="&#x303;" 
d="M-426 548l-51 54c39 65 90 101 148 101c20 0 46 -7 71 -23l22 -14c17 -11 39 -24 59 -24c25 0 52 20 74 56l53 -46c-26 -63 -76 -101 -128 -101c-35 0 -57 7 -82 22l-20 12c-20 12 -41 19 -54 19c-31 0 -65 -21 -92 -56z" />
    <glyph glyph-name="uni0304" unicode="&#x304;" 
d="M-486 585v89h386v-89h-386z" />
    <glyph glyph-name="uni0326" unicode="&#x326;" 
d="M-378 -336l29 246h127l-60 -246h-96z" />
    <glyph glyph-name="uni0327" unicode="&#x327;" 
d="M-502 -309v82h159c24 0 39 10 39 46c0 45 -18 45 -39 45h-116l24 144h80l-7 -61h44c76 0 120 -46 120 -120c0 -86 -40 -136 -134 -136h-170z" />
    <glyph glyph-name="uni0328" unicode="&#x328;" 
d="M-420 -309c-81 0 -131 44 -131 122c0 60 34 128 114 197l139 -10c-94 -49 -146 -116 -146 -171c0 -25 15 -52 39 -52h63v-86h-78z" />
    <glyph glyph-name="acute" unicode="&#xb4;" horiz-adv-x="761" 
d="M250 545l102 185h161l-144 -185h-119z" />
    <glyph glyph-name="breve" unicode="&#x2d8;" horiz-adv-x="520" 
d="M250 554c-103 0 -174 56 -180 170h100c6 -54 36 -89 87 -89h6c51 0 82 35 87 89h100c-7 -116 -78 -170 -179 -170h-21z" />
    <glyph glyph-name="caron" unicode="&#x2c7;" horiz-adv-x="527" 
d="M70 727h126l64 -100h7l64 100h126l-139 -188h-108z" />
    <glyph glyph-name="cedilla" unicode="&#xb8;" horiz-adv-x="703" 
d="M201 -309v82h159c24 0 39 10 39 46c0 45 -18 45 -39 45h-116l24 144h80l-7 -61h44c76 0 120 -46 120 -120c0 -86 -40 -136 -134 -136h-170z" />
    <glyph glyph-name="circumflex" unicode="&#x2c6;" horiz-adv-x="527" 
d="M70 531l140 188h108l139 -188h-126l-64 100h-7l-64 -100h-126z" />
    <glyph glyph-name="dieresis" unicode="&#xa8;" horiz-adv-x="613" 
d="M195 542c-47 0 -72 20 -72 73s25 75 72 75c45 0 71 -22 71 -75s-26 -73 -71 -73zM416 542c-46 0 -71 20 -71 73s25 75 71 75s72 -22 72 -75s-26 -73 -72 -73z" />
    <glyph glyph-name="dotaccent" unicode="&#x2d9;" horiz-adv-x="921" 
d="M459 543c-49 0 -77 19 -77 72s28 75 77 75c50 0 78 -22 78 -75s-28 -72 -78 -72z" />
    <glyph glyph-name="grave" unicode="`" horiz-adv-x="764" 
d="M391 545l-143 185h161l102 -185h-120z" />
    <glyph glyph-name="hungarumlaut" unicode="&#x2dd;" horiz-adv-x="497" 
d="M24 545l80 185h148l-114 -185h-114zM242 545l81 185h147l-114 -185h-114z" />
    <glyph glyph-name="macron" unicode="&#xaf;" horiz-adv-x="586" 
d="M100 585v89h386v-89h-386z" />
    <glyph glyph-name="ogonek" unicode="&#x2db;" horiz-adv-x="805" 
d="M385 -309c-81 0 -131 44 -131 122c0 60 34 128 114 197l139 -10c-94 -49 -146 -116 -146 -171c0 -25 15 -52 39 -52h63v-86h-78z" />
    <glyph glyph-name="ring" unicode="&#x2da;" horiz-adv-x="374" 
d="M164 536c-49 0 -94 20 -94 108c0 72 34 108 94 108h46c50 0 94 -20 94 -108c0 -73 -37 -108 -94 -108h-46zM177 596h20c26 0 39 16 39 48s-13 48 -39 48h-20c-25 0 -39 -16 -39 -48s14 -48 39 -48z" />
    <glyph glyph-name="tilde" unicode="&#x2dc;" horiz-adv-x="527" 
d="M101 548l-51 54c39 65 90 101 148 101c20 0 46 -7 71 -23l22 -14c17 -11 39 -24 59 -24c25 0 52 20 74 56l53 -46c-26 -63 -76 -101 -128 -101c-35 0 -57 7 -82 22l-20 12c-20 12 -41 19 -54 19c-31 0 -65 -21 -92 -56z" />
    <glyph glyph-name="uni0308.case" 
d="M-413 801c-47 0 -72 20 -72 73s25 75 72 75c45 0 71 -22 71 -75s-26 -73 -71 -73zM-192 801c-46 0 -71 20 -71 73s25 75 71 75s72 -22 72 -75s-26 -73 -72 -73z" />
    <glyph glyph-name="uni0307.case" 
d="M-148 802c-49 0 -77 19 -77 72s28 75 77 75c50 0 78 -22 78 -75s-28 -72 -78 -72z" />
    <glyph glyph-name="gravecomb.case" 
d="M-373 805l-143 185h161l102 -185h-120z" />
    <glyph glyph-name="acutecomb.case" 
d="M-484 805l102 185h161l-144 -185h-119z" />
    <glyph glyph-name="uni030B.case" 
d="M-473 805l80 185h148l-114 -185h-114zM-255 805l81 185h147l-114 -185h-114z" />
    <glyph glyph-name="uni0302.case" 
d="M-486 791l140 188h108l139 -188h-126l-64 100h-7l-64 -100h-126z" />
    <glyph glyph-name="uni030C.case" 
d="M-346 799l-140 188h126l64 -99h7l64 99h126l-139 -188h-108z" />
    <glyph glyph-name="uni0306.case" 
d="M-308 813c-103 0 -174 57 -180 171h100c6 -54 36 -89 87 -89h6c51 0 82 35 87 89h100c-7 -116 -78 -171 -179 -171h-21z" />
    <glyph glyph-name="uni030A.case" 
d="M-428 756c-49 0 -94 20 -94 108c0 72 34 108 94 108h46c50 0 94 -20 94 -108c0 -73 -36 -108 -94 -108h-46zM-415 816h20c26 0 39 16 39 48s-13 48 -39 48h-20c-26 0 -39 -16 -39 -48s13 -48 39 -48z" />
    <glyph glyph-name="tildecomb.case" 
d="M-426 808l-51 54c39 65 90 101 148 101c20 0 46 -7 71 -23l22 -14c19 -12 38 -24 59 -24c25 0 52 20 74 56l53 -46c-26 -63 -75 -102 -128 -102c-37 0 -59 9 -82 23l-20 12c-20 12 -40 20 -54 20c-31 0 -65 -22 -92 -57z" />
    <glyph glyph-name="uni0304.case" 
d="M-486 843v88h386v-88h-386z" />
    <glyph glyph-name="tonos" unicode="&#x384;" horiz-adv-x="775" 
d="M259 545l94 215h162l-136 -215h-120z" />
    <glyph glyph-name="dieresistonos" unicode="&#x385;" horiz-adv-x="401" 
d="M106 525l80 245h154l-122 -245h-112zM16 543c-46 0 -71 20 -71 73s25 75 72 75c45 0 71 -22 71 -75s-26 -73 -72 -73zM387 543c-47 0 -72 20 -72 73s25 75 72 75c45 0 71 -22 71 -75s-26 -73 -71 -73z" />
    </font>
</defs>
</svg>
