<?xml version="1.0" standalone="no"?>
<!DOCTYPE svg PUBLIC "-//W3C//DTD SVG 1.1//EN" "http://www.w3.org/Graphics/SVG/1.1/DTD/svg11.dtd" >
<svg xmlns="http://www.w3.org/2000/svg" xmlns:xlink="http://www.w3.org/1999/xlink" version="1.1">
<metadata>
Created by FontForge 20201107 at Fri Dec  9 14:21:58 2005
 By Jimmy Wärting
Copyright (c) Mark Simonson, 2005. All rights reserved.
</metadata>
<defs>
<font id="ProximaNova-Semibold" horiz-adv-x="394" >
  <font-face 
    font-family="Proxima Nova Lt"
    font-weight="600"
    font-stretch="normal"
    units-per-em="1000"
    panose-1="2 0 5 6 3 0 0 2 0 4"
    ascent="790"
    descent="-210"
    x-height="483"
    cap-height="667"
    bbox="-172 -281 1119 898"
    underline-thickness="20"
    underline-position="-133"
    stemh="21"
    stemv="120"
    unicode-range="U+0020-FB04"
  />
<missing-glyph horiz-adv-x="493" 
d="M422 -90h-351v842h351v-842zM390 -60v782h-288v-782h288z" />
    <glyph glyph-name="fi" unicode="fi" horiz-adv-x="550" 
d="M199 0h-105v392h-80v91h80v27c0 108 64 167 152 167c34 0 63 -6 85 -18l-23 -79c-11 7 -25 11 -42 11c-42 0 -67 -27 -67 -81v-27h98v-91h-98v-392zM430 542c-36 0 -65 29 -65 65s29 65 65 65s65 -29 65 -65s-29 -65 -65 -65zM482 0h-105v483h105v-483z" />
    <glyph glyph-name="fl" unicode="fl" horiz-adv-x="550" 
d="M199 0h-105v392h-80v91h80v27c0 108 64 167 152 167c34 0 63 -6 85 -18l-23 -79c-11 7 -25 11 -42 11c-42 0 -67 -27 -67 -81v-27h98v-91h-98v-392zM482 0h-105v667h105v-667z" />
    <glyph glyph-name="f_b" unicode="fb" horiz-adv-x="890" 
d="M199 0h-105v392h-80v91h80v27c0 108 64 167 152 167c34 0 63 -6 85 -18l-23 -79c-11 7 -25 11 -42 11c-42 0 -67 -27 -67 -81v-27h98v-91h-98v-392zM482 145c24 -36 75 -64 125 -64c83 0 136 67 136 161c0 93 -53 160 -136 160c-50 0 -101 -29 -125 -65v-192zM482 0h-105
v667h105v-251c39 52 95 79 155 79c125 0 215 -97 215 -253c0 -160 -91 -254 -215 -254c-62 0 -118 30 -155 78v-66z" />
    <glyph glyph-name="f_h" unicode="fh" horiz-adv-x="877" 
d="M199 0h-105v392h-80v91h80v27c0 108 64 167 152 167c34 0 63 -6 85 -18l-23 -79c-11 7 -25 11 -42 11c-42 0 -67 -27 -67 -81v-27h98v-91h-98v-392zM809 0h-105v304c0 76 -38 98 -97 98c-54 0 -100 -32 -124 -64v-338h-105v667h105v-249c32 38 94 77 170 77
c104 0 156 -54 156 -153v-342z" />
    <glyph glyph-name="f_k" unicode="fk" horiz-adv-x="835" 
d="M199 0h-105v392h-80v91h80v27c0 108 64 167 152 167c34 0 63 -6 85 -18l-23 -79c-11 7 -25 11 -42 11c-42 0 -67 -27 -67 -81v-27h98v-91h-98v-392zM829 0h-132l-147 200l-68 -70v-130h-105v667h105v-417l213 233h130l-200 -219z" />
    <glyph glyph-name="f_f_j" unicode="ffj" horiz-adv-x="858" 
d="M199 0h-105v392h-80v91h80v27c0 105 61 167 152 167c44 0 87 -11 116 -42l-41 -65c-14 13 -32 21 -55 21c-42 0 -67 -27 -67 -81v-27h98v-91h-98v-392zM508 0h-105v392h-80v91h80v27c0 108 64 167 152 167c34 0 63 -6 85 -18l-23 -79c-11 7 -25 11 -42 11
c-42 0 -67 -27 -67 -81v-27h98v-91h-98v-392zM738 542c-36 0 -65 29 -65 65s29 65 65 65s65 -29 65 -65s-29 -65 -65 -65zM630 -196c-56 0 -81 11 -114 35l31 78c18 -16 37 -27 67 -27c42 0 71 25 71 82v511h105v-511c0 -103 -53 -168 -160 -168z" />
    <glyph glyph-name="f_j" unicode="fj" horiz-adv-x="550" 
d="M199 0h-105v392h-80v91h80v27c0 108 64 167 152 167c34 0 63 -6 85 -18l-23 -79c-11 7 -25 11 -42 11c-42 0 -67 -27 -67 -81v-27h98v-91h-98v-392zM430 542c-36 0 -65 29 -65 65s29 65 65 65s65 -29 65 -65s-29 -65 -65 -65zM322 -196c-56 0 -81 11 -114 35l31 78
c18 -16 37 -27 67 -27c42 0 71 25 71 82v511h105v-511c0 -103 -53 -168 -160 -168z" />
    <glyph glyph-name="f_f" unicode="ff" horiz-adv-x="617" 
d="M199 0h-105v392h-80v91h80v27c0 105 61 167 152 167c44 0 87 -11 116 -42l-41 -65c-14 13 -32 21 -55 21c-42 0 -67 -27 -67 -81v-27h98v-91h-98v-392zM508 0h-105v392h-80v91h80v27c0 105 61 167 152 167c44 0 87 -11 116 -42l-41 -65c-14 13 -32 21 -55 21
c-42 0 -67 -27 -67 -81v-27h98v-91h-98v-392z" />
    <glyph glyph-name="f_f_i" unicode="ffi" horiz-adv-x="858" 
d="M199 0h-105v392h-80v91h80v27c0 105 61 167 152 167c44 0 87 -11 116 -42l-41 -65c-14 13 -32 21 -55 21c-42 0 -67 -27 -67 -81v-27h98v-91h-98v-392zM508 0h-105v392h-80v91h80v27c0 108 64 167 152 167c34 0 63 -6 85 -18l-23 -79c-11 7 -25 11 -42 11
c-42 0 -67 -27 -67 -81v-27h98v-91h-98v-392zM738 542c-36 0 -65 29 -65 65s29 65 65 65s65 -29 65 -65s-29 -65 -65 -65zM790 0h-105v483h105v-483z" />
    <glyph glyph-name="f_f_l" unicode="ffl" horiz-adv-x="858" 
d="M199 0h-105v392h-80v91h80v27c0 105 61 167 152 167c44 0 87 -11 116 -42l-41 -65c-14 13 -32 21 -55 21c-42 0 -67 -27 -67 -81v-27h98v-91h-98v-392zM508 0h-105v392h-80v91h80v27c0 108 64 167 152 167c34 0 63 -6 85 -18l-23 -79c-11 7 -25 11 -42 11
c-42 0 -67 -27 -67 -81v-27h98v-91h-98v-392zM790 0h-105v667h105v-667z" />
    <glyph glyph-name=".notdef" horiz-adv-x="493" 
d="M422 -90h-351v842h351v-842zM390 -60v782h-288v-782h288z" />
    <glyph glyph-name="space" unicode=" " horiz-adv-x="258" 
 />
    <glyph glyph-name="exclam" unicode="!" horiz-adv-x="244" 
d="M168 205h-91l-19 462h128zM123 -10c-38 0 -70 32 -70 70c0 37 32 69 70 69s69 -32 69 -69c0 -38 -31 -70 -69 -70z" />
    <glyph glyph-name="quotedbl" unicode="&#x22;" horiz-adv-x="380" 
d="M131 391h-48s-35 210 -35 227c0 33 27 59 59 59c33 0 59 -26 59 -59c0 -17 -35 -227 -35 -227zM297 391h-48s-35 210 -35 227c0 33 26 59 59 59s59 -26 59 -59c0 -17 -35 -227 -35 -227z" />
    <glyph glyph-name="numbersign" unicode="#" horiz-adv-x="607" 
d="M322 0h-80l59 175h-102l-58 -175h-80l59 175h-101l22 69h102l60 179h-102l21 69h104l58 175h80l-58 -175h101l58 175h80l-59 -175h102l-20 -69h-104l-61 -179h106l-22 -69h-107zM323 244l61 179h-101l-60 -179h100z" />
    <glyph glyph-name="dollar" unicode="$" horiz-adv-x="605" 
d="M269 -100v90c-103 8 -180 49 -233 104l66 91c37 -41 95 -79 167 -90v194c-103 26 -211 63 -211 193c0 102 82 183 211 194v92h80v-93c81 -9 149 -41 201 -91l-66 -87c-38 38 -86 61 -135 71v-173c104 -27 217 -66 217 -200c0 -102 -67 -192 -217 -205v-90h-80zM446 184
c0 45 -42 67 -97 84v-174c69 10 97 51 97 90zM178 491c0 -39 38 -59 91 -75v157c-56 -7 -91 -38 -91 -82z" />
    <glyph glyph-name="percent" unicode="%" horiz-adv-x="747" 
d="M194 346c-99 0 -166 72 -166 165c0 94 67 166 166 166c100 0 166 -72 166 -166c0 -93 -66 -165 -166 -165zM196 0h-67l426 667h68zM553 -12c-99 0 -166 72 -166 165c0 94 67 166 166 166s166 -72 166 -166c0 -93 -67 -165 -166 -165zM194 413c52 0 89 40 89 98
c0 59 -37 100 -89 100c-51 0 -88 -41 -88 -100c0 -58 37 -98 88 -98zM553 55c52 0 89 40 89 98c0 59 -37 100 -89 100s-89 -41 -89 -100c0 -58 37 -98 89 -98z" />
    <glyph glyph-name="ampersand" unicode="&#x26;" horiz-adv-x="645" 
d="M628 0h-138c-16 15 -37 35 -59 58c-50 -42 -111 -70 -187 -70c-118 0 -214 64 -214 190c0 103 68 156 145 195c-28 50 -47 101 -47 147c0 89 77 157 181 157c90 0 164 -49 164 -136c0 -101 -83 -145 -166 -185c23 -32 47 -61 66 -83c22 -27 44 -53 66 -77
c32 48 54 101 66 140l85 -39c-23 -54 -53 -113 -92 -166c40 -42 82 -85 130 -131zM258 72c43 0 81 19 115 47c-34 36 -65 71 -82 93c-25 29 -51 62 -74 95c-44 -29 -76 -64 -76 -120c0 -73 55 -115 117 -115zM233 517c0 -30 13 -65 33 -100c63 30 114 62 114 118
c0 41 -29 65 -67 65c-44 0 -80 -34 -80 -83z" />
    <glyph glyph-name="quoteright" unicode="&#x2019;" horiz-adv-x="245" 
d="M198 586c0 -69 -38 -131 -93 -170l-48 38c32 19 66 60 72 94c-2 -1 -10 -2 -17 -2c-33 0 -59 26 -59 63s30 68 68 68c41 0 77 -33 77 -91z" />
    <glyph glyph-name="parenleft" unicode="(" horiz-adv-x="276" 
d="M259 -149l-65 -50c-95 115 -152 281 -152 442s57 327 152 442l65 -49c-67 -124 -103 -235 -103 -393c0 -156 36 -269 103 -392z" />
    <glyph glyph-name="parenright" unicode=")" horiz-adv-x="277" 
d="M18 -149l65 -50c94 115 151 281 151 442s-57 327 -151 442l-65 -49c66 -124 102 -235 102 -393c0 -156 -36 -269 -102 -392z" />
    <glyph glyph-name="asterisk" unicode="*" horiz-adv-x="347" 
d="M201 376h-55l5 112l-94 -60l-28 48l99 51l-99 51l28 48l94 -61l-5 112h55l-5 -112l94 61l28 -48l-100 -51l100 -51l-28 -48l-94 60z" />
    <glyph glyph-name="plus" unicode="+" horiz-adv-x="502" 
d="M473 304h-185v-208h-74v208h-185v67h185v201h74v-201h185v-67z" />
    <glyph glyph-name="comma" unicode="," horiz-adv-x="245" 
d="M198 38c0 -69 -38 -132 -93 -171l-48 39c32 19 66 60 72 94c-2 -1 -10 -3 -17 -3c-33 0 -59 27 -59 64s30 68 68 68c41 0 77 -33 77 -91z" />
    <glyph glyph-name="hyphen" unicode="-" horiz-adv-x="300" 
d="M270 197h-240v90h240v-90z" />
    <glyph glyph-name="period" unicode="." horiz-adv-x="246" 
d="M123 -11c-38 0 -70 33 -70 71c0 37 32 69 70 69s70 -32 70 -69c0 -38 -32 -71 -70 -71z" />
    <glyph glyph-name="slash" unicode="/" horiz-adv-x="315" 
d="M78 -20h-78l237 707h78z" />
    <glyph glyph-name="zero" unicode="0" horiz-adv-x="617" 
d="M309 -12c-188 0 -267 178 -267 345c0 168 79 344 267 344c187 0 266 -176 266 -344c0 -167 -79 -345 -266 -345zM309 92c108 0 147 114 147 241c0 128 -38 240 -147 240s-148 -112 -148 -240c0 -127 39 -241 148 -241z" />
    <glyph glyph-name="one" unicode="1" horiz-adv-x="380" 
d="M309 0h-117v516l-109 -114l-68 71l192 194h102v-667z" />
    <glyph glyph-name="two" unicode="2" horiz-adv-x="595" 
d="M533 0h-483v93c259 196 361 282 361 379c0 70 -61 101 -122 101c-78 0 -137 -31 -180 -79l-68 76c59 72 153 107 247 107c129 0 241 -72 241 -205c0 -124 -113 -234 -291 -369h295v-103z" />
    <glyph glyph-name="three" unicode="3" horiz-adv-x="574" 
d="M276 -12c-118 0 -206 48 -252 108l64 77c43 -50 113 -81 184 -81c88 0 139 41 139 102c0 66 -52 95 -148 95c-28 0 -66 -1 -76 -2v106c11 -1 50 -1 76 -1c79 0 138 27 138 88s-61 93 -135 93c-69 0 -125 -25 -173 -74l-60 73c52 61 133 105 244 105
c144 0 240 -68 240 -179c0 -90 -76 -142 -144 -153c64 -7 155 -59 155 -162c0 -114 -97 -195 -252 -195z" />
    <glyph glyph-name="four" unicode="4" horiz-adv-x="580" 
d="M463 0h-117v151h-318v94l274 422h161v-413h89v-103h-89v-151zM346 254v308l-203 -308h203z" />
    <glyph glyph-name="five" unicode="5" horiz-adv-x="600" 
d="M304 -12c-114 0 -193 40 -247 103l67 81c44 -52 105 -80 179 -80c85 0 137 52 137 118c0 71 -52 118 -134 118c-56 0 -103 -17 -146 -57l-83 24v372h437v-103h-320v-192c33 31 87 57 151 57c113 0 214 -78 214 -215c0 -138 -106 -226 -255 -226z" />
    <glyph glyph-name="six" unicode="6" horiz-adv-x="601" 
d="M317 -12c-196 0 -275 159 -275 345c0 192 101 344 294 344c82 0 146 -29 191 -74l-54 -88c-35 36 -74 58 -137 58c-112 0 -176 -103 -176 -220v-19c31 45 101 94 179 94c120 0 224 -74 224 -216c0 -123 -97 -224 -246 -224zM310 92c88 0 134 63 134 116
c0 82 -64 119 -136 119c-57 0 -113 -30 -146 -78c6 -72 46 -157 148 -157z" />
    <glyph glyph-name="seven" unicode="7" horiz-adv-x="532" 
d="M250 0h-129l252 564h-346v103h481v-81z" />
    <glyph glyph-name="eight" unicode="8" horiz-adv-x="596" 
d="M298 -12c-137 0 -256 64 -256 184c0 84 69 145 150 172c-75 24 -139 74 -139 158c0 124 127 175 245 175s245 -51 245 -175c0 -84 -64 -134 -139 -158c81 -27 150 -88 150 -172c0 -120 -120 -184 -256 -184zM298 391c41 7 126 31 126 93c0 57 -54 89 -126 89
s-126 -32 -126 -89c0 -62 86 -86 126 -93zM298 92c74 0 137 36 137 95c0 69 -96 99 -137 105c-42 -6 -137 -36 -137 -105c0 -59 61 -95 137 -95z" />
    <glyph glyph-name="nine" unicode="9" horiz-adv-x="601" 
d="M266 -11c-83 0 -147 30 -192 74l55 89c35 -37 73 -59 137 -59c121 0 176 111 176 220c0 6 0 13 -1 19c-30 -45 -100 -93 -179 -93c-120 0 -223 73 -223 215c0 124 97 224 246 224c196 0 275 -159 275 -344c0 -193 -101 -345 -294 -345zM294 339c57 0 112 31 146 79
c-7 72 -46 156 -149 156c-88 0 -134 -62 -134 -116c0 -82 64 -119 137 -119z" />
    <glyph glyph-name="colon" unicode=":" horiz-adv-x="237" 
d="M123 351c-38 0 -70 32 -70 69c0 38 32 70 70 70s70 -32 70 -70c0 -37 -32 -69 -70 -69zM123 -11c-38 0 -70 33 -70 71c0 37 32 69 70 69s70 -32 70 -69c0 -38 -32 -71 -70 -71z" />
    <glyph glyph-name="semicolon" unicode=";" horiz-adv-x="245" 
d="M123 351c-38 0 -70 32 -70 70s32 69 70 69s70 -31 70 -69s-32 -70 -70 -70zM198 41c0 -69 -38 -132 -93 -171l-48 39c32 19 66 60 72 94c-2 -1 -10 -2 -17 -2c-33 0 -59 26 -59 63s30 68 68 68c41 0 77 -33 77 -91z" />
    <glyph glyph-name="less" unicode="&#x3c;" horiz-adv-x="502" 
d="M473 90l-444 207v76l444 207v-80l-364 -166l364 -163v-81z" />
    <glyph glyph-name="equal" unicode="=" horiz-adv-x="502" 
d="M473 396h-444v67h444v-67zM473 205h-444v68h444v-68z" />
    <glyph glyph-name="greater" unicode="&#x3e;" horiz-adv-x="502" 
d="M473 297l-444 -207v81l365 163l-365 166v80l444 -207v-76z" />
    <glyph glyph-name="question" unicode="?" horiz-adv-x="459" 
d="M189 196c-24 23 -35 53 -35 86c0 122 161 134 161 219c0 39 -31 72 -95 72c-62 0 -106 -27 -139 -70l-68 75c51 63 128 99 218 99c126 0 203 -67 203 -157c0 -148 -178 -160 -178 -249c0 -16 8 -35 22 -45zM225 -11c-38 0 -70 33 -70 71c0 37 32 69 70 69s70 -32 70 -69
c0 -38 -32 -71 -70 -71z" />
    <glyph glyph-name="at" unicode="@" horiz-adv-x="783" 
d="M352 -70c-182 0 -317 137 -317 314c0 215 189 394 397 394c191 0 315 -140 315 -311c0 -162 -101 -242 -187 -242c-58 0 -89 37 -94 77l-1 7c-35 -50 -92 -84 -150 -84c-96 0 -155 69 -155 166c0 136 113 248 230 248c63 0 106 -32 127 -72l11 57h94l-54 -256
c-1 -5 -2 -17 -2 -22c0 -32 18 -48 41 -48c39 0 101 45 101 170c0 160 -110 273 -279 273c-192 0 -356 -168 -356 -355c0 -158 119 -280 284 -280c69 0 129 21 183 56l20 -29c-62 -40 -134 -63 -208 -63zM349 161c59 0 102 40 127 76l26 126c-10 26 -39 60 -90 60
c-89 0 -154 -81 -154 -165c0 -57 34 -97 91 -97z" />
    <glyph glyph-name="A" unicode="A" horiz-adv-x="673" 
d="M672 0h-133l-49 129h-306l-49 -129h-133l262 667h146zM457 232l-120 318l-120 -318h240z" />
    <glyph glyph-name="B" unicode="B" horiz-adv-x="649" 
d="M408 0h-337v667h328c123 0 190 -76 190 -170c0 -83 -54 -140 -116 -153c72 -11 129 -82 129 -163c0 -104 -68 -181 -194 -181zM376 392c59 0 93 35 93 86c0 49 -34 86 -93 86h-188v-172h188zM381 103c63 0 101 35 101 93c0 50 -35 93 -101 93h-193v-186h193z" />
    <glyph glyph-name="C" unicode="C" horiz-adv-x="682" 
d="M392 -12c-197 0 -350 140 -350 345c0 206 153 345 350 345c134 0 218 -69 267 -149l-99 -52c-32 56 -97 97 -168 97c-132 0 -230 -100 -230 -241c0 -139 98 -241 230 -241c71 0 136 42 168 97l100 -50c-51 -80 -134 -151 -268 -151z" />
    <glyph glyph-name="D" unicode="D" horiz-adv-x="710" 
d="M320 0h-249v667h248c209 0 349 -138 349 -333c0 -197 -140 -334 -348 -334zM319 103c145 0 229 104 229 231c0 128 -80 230 -228 230h-132v-461h131z" />
    <glyph glyph-name="E" unicode="E" horiz-adv-x="577" 
d="M528 0h-457v667h457v-103h-340v-172h333v-103h-333v-186h340v-103z" />
    <glyph glyph-name="F" unicode="F" horiz-adv-x="563" 
d="M188 0h-117v667h457v-103h-340v-172h333v-103h-333v-289z" />
    <glyph glyph-name="G" unicode="G" horiz-adv-x="717" 
d="M392 -13c-194 0 -350 137 -350 346c0 210 156 345 350 345c130 0 215 -62 268 -138l-95 -55c-36 50 -99 89 -173 89c-132 0 -230 -100 -230 -241c0 -139 98 -241 230 -241c68 0 128 31 158 60v103h-200v103h316v-249c-65 -73 -159 -122 -274 -122z" />
    <glyph glyph-name="H" unicode="H" horiz-adv-x="723" 
d="M652 0h-117v292h-347v-292h-117v667h117v-272h347v272h117v-667z" />
    <glyph glyph-name="I" unicode="I" horiz-adv-x="259" 
d="M188 0h-117v667h117v-667z" />
    <glyph glyph-name="J" unicode="J" horiz-adv-x="482" 
d="M186 -12c-69 0 -130 21 -178 71l55 89c26 -30 63 -56 114 -56c71 0 117 49 117 121v454h117v-455c0 -152 -96 -224 -225 -224z" />
    <glyph glyph-name="K" unicode="K" horiz-adv-x="621" 
d="M615 0h-145l-223 282l-59 -69v-213h-117v667h117v-317l261 317h145l-271 -314z" />
    <glyph glyph-name="L" unicode="L" horiz-adv-x="506" 
d="M474 0h-411v667h117v-564h294v-103z" />
    <glyph glyph-name="M" unicode="M" horiz-adv-x="835" 
d="M764 0h-117v515l-204 -515h-50l-205 515v-515h-117v667h165l182 -458l181 458h165v-667z" />
    <glyph glyph-name="N" unicode="N" horiz-adv-x="720" 
d="M649 0h-113l-348 477v-477h-117v667h120l341 -462v462h117v-667z" />
    <glyph glyph-name="O" unicode="O" horiz-adv-x="765" 
d="M383 -12c-200 0 -341 146 -341 345s141 345 341 345c199 0 341 -146 341 -345s-142 -345 -341 -345zM383 92c134 0 221 104 221 241c0 138 -87 241 -221 241c-135 0 -221 -103 -221 -241c0 -137 86 -241 221 -241z" />
    <glyph glyph-name="P" unicode="P" horiz-adv-x="609" 
d="M188 0h-117v667h294c140 0 217 -95 217 -209c0 -113 -78 -208 -217 -208h-177v-250zM349 353c66 0 113 42 113 105c0 64 -47 106 -113 106h-161v-211h161z" />
    <glyph glyph-name="Q" unicode="Q" horiz-adv-x="765" 
d="M383 -12c-200 0 -341 146 -341 345s141 345 341 345c199 0 341 -146 341 -345c0 -96 -33 -179 -89 -240l55 -62l-81 -68l-58 65c-49 -26 -106 -40 -168 -40zM383 92c35 0 66 7 94 20l-83 94l82 68l83 -94c29 41 45 94 45 153c0 138 -87 241 -221 241
c-135 0 -221 -103 -221 -241c0 -137 86 -241 221 -241z" />
    <glyph glyph-name="R" unicode="R" horiz-adv-x="629" 
d="M588 0h-136l-147 249h-117v-249h-117v667h293c132 0 219 -85 219 -209c0 -118 -78 -183 -159 -196zM349 352c66 0 114 42 114 107c0 64 -48 105 -114 105h-161v-212h161z" />
    <glyph glyph-name="S" unicode="S" horiz-adv-x="594" 
d="M300 -12c-123 0 -212 44 -272 106l66 91c45 -49 118 -93 211 -93c96 0 133 47 133 92c0 140 -388 53 -388 298c0 111 96 196 243 196c103 0 188 -34 249 -94l-66 -87c-53 53 -124 77 -194 77c-68 0 -112 -34 -112 -83c0 -125 388 -48 388 -296c0 -111 -79 -207 -258 -207
z" />
    <glyph glyph-name="T" unicode="T" horiz-adv-x="577" 
d="M347 0h-117v564h-202v103h521v-103h-202v-564z" />
    <glyph glyph-name="U" unicode="U" horiz-adv-x="720" 
d="M360 -12c-193 0 -289 111 -289 276v403h119v-400c0 -106 59 -175 170 -175s170 69 170 175v400h119v-403c0 -165 -95 -276 -289 -276z" />
    <glyph glyph-name="V" unicode="V" horiz-adv-x="673" 
d="M410 0h-146l-262 667h133l202 -539l202 539h133z" />
    <glyph glyph-name="W" unicode="W" horiz-adv-x="903" 
d="M706 0h-125l-129 493l-130 -493h-125l-190 667h130l130 -513l138 513h93l138 -513l130 513h131z" />
    <glyph glyph-name="X" unicode="X" horiz-adv-x="661" 
d="M658 0h-140l-187 261l-187 -261h-140l249 342l-234 325h140l172 -244l171 244h141l-235 -324z" />
    <glyph glyph-name="Y" unicode="Y" horiz-adv-x="637" 
d="M378 0h-117v277l-259 390h134l183 -285l183 285h134l-258 -390v-277z" />
    <glyph glyph-name="Z" unicode="Z" horiz-adv-x="589" 
d="M545 0h-500v95l340 469h-340v103h493v-94l-342 -470h349v-103z" />
    <glyph glyph-name="bracketleft" unicode="[" horiz-adv-x="265" 
d="M247 -190h-203v868h203v-72h-125v-724h125v-72z" />
    <glyph glyph-name="backslash" unicode="\" horiz-adv-x="315" 
d="M237 -20l-237 707h78l237 -707h-78z" />
    <glyph glyph-name="bracketright" unicode="]" horiz-adv-x="265" 
d="M221 -190h-203v72h125v724h-125v72h203v-868z" />
    <glyph glyph-name="asciicircum" unicode="^" horiz-adv-x="437" 
d="M418 333h-80l-119 261l-119 -261h-81l162 334h77z" />
    <glyph glyph-name="underscore" unicode="_" horiz-adv-x="564" 
d="M567 -112h-570v72h570v-72z" />
    <glyph glyph-name="quoteleft" unicode="&#x2018;" horiz-adv-x="245" 
d="M43 507c0 69 38 132 93 171l48 -39c-32 -19 -66 -60 -72 -94c2 1 10 3 17 3c33 0 59 -26 59 -63c0 -38 -30 -69 -68 -69c-41 0 -77 33 -77 91z" />
    <glyph glyph-name="a" unicode="a" horiz-adv-x="537" 
d="M469 0h-105v53c-36 -42 -93 -65 -157 -65c-78 0 -167 54 -167 160c0 112 88 158 167 158c66 0 121 -21 157 -62v72c0 56 -47 90 -113 90c-54 0 -102 -20 -143 -62l-44 73c56 54 126 78 203 78c108 0 202 -45 202 -174v-321zM249 60c45 0 90 17 115 50v74
c-25 33 -70 50 -115 50c-59 0 -104 -35 -104 -87c0 -53 45 -87 104 -87z" />
    <glyph glyph-name="b" unicode="b" horiz-adv-x="581" 
d="M173 145c24 -36 75 -64 125 -64c83 0 136 67 136 161c0 93 -53 160 -136 160c-50 0 -101 -29 -125 -65v-192zM173 0h-105v667h105v-251c39 52 95 79 155 79c125 0 215 -97 215 -253c0 -160 -91 -254 -215 -254c-62 0 -118 30 -155 78v-66z" />
    <glyph glyph-name="c" unicode="c" horiz-adv-x="498" 
d="M288 -12c-146 0 -249 108 -249 254s103 253 249 253c95 0 151 -40 185 -86l-69 -63c-27 38 -64 56 -111 56c-87 0 -146 -66 -146 -160s59 -161 146 -161c47 0 84 20 111 58l69 -65c-34 -45 -90 -86 -185 -86z" />
    <glyph glyph-name="d" unicode="d" horiz-adv-x="581" 
d="M513 0h-105v66c-37 -48 -92 -78 -155 -78c-123 0 -214 94 -214 254c0 156 90 253 214 253c61 0 117 -27 155 -79v251h105v-667zM284 81c49 0 101 29 124 65v191c-23 36 -75 65 -124 65c-84 0 -137 -67 -137 -160c0 -94 53 -161 137 -161z" />
    <glyph glyph-name="e" unicode="e" horiz-adv-x="557" 
d="M292 -12c-146 0 -253 101 -253 254c0 140 102 253 245 253c145 0 237 -110 237 -262v-26h-372c8 -72 62 -133 153 -133c48 0 103 19 138 54l48 -69c-49 -46 -120 -71 -196 -71zM420 282c-3 57 -42 127 -137 127c-89 0 -131 -69 -135 -127h272z" />
    <glyph glyph-name="f" unicode="f" horiz-adv-x="309" 
d="M199 0h-105v392h-80v91h80v27c0 105 61 167 152 167c44 0 87 -11 116 -42l-41 -65c-14 13 -32 21 -55 21c-42 0 -67 -27 -67 -81v-27h98v-91h-98v-392z" />
    <glyph glyph-name="g" unicode="g" horiz-adv-x="581" 
d="M265 -196c-82 0 -143 18 -203 72l49 76c40 -45 90 -62 154 -62c69 0 143 32 143 135v55c-37 -49 -92 -81 -155 -81c-123 0 -214 89 -214 248c0 157 89 248 214 248c61 0 116 -27 155 -79v67h105v-458c0 -174 -130 -221 -248 -221zM284 93c49 0 100 29 124 64v181
c-24 35 -75 64 -124 64c-84 0 -137 -62 -137 -155s53 -154 137 -154z" />
    <glyph glyph-name="h" unicode="h" horiz-adv-x="568" 
d="M500 0h-105v304c0 76 -38 98 -97 98c-54 0 -100 -32 -124 -64v-338h-105v667h105v-249c32 38 94 77 170 77c104 0 156 -54 156 -153v-342z" />
    <glyph glyph-name="i" unicode="i" horiz-adv-x="241" 
d="M121 542c-36 0 -65 29 -65 65s29 65 65 65s65 -29 65 -65s-29 -65 -65 -65zM173 0h-105v483h105v-483z" />
    <glyph glyph-name="j" unicode="j" horiz-adv-x="241" 
d="M121 542c-36 0 -65 29 -65 65s29 65 65 65s65 -29 65 -65s-29 -65 -65 -65zM13 -196c-56 0 -81 11 -114 35l31 78c18 -16 37 -27 67 -27c42 0 71 25 71 82v511h105v-511c0 -103 -53 -168 -160 -168z" />
    <glyph glyph-name="k" unicode="k" horiz-adv-x="527" 
d="M520 0h-132l-147 200l-68 -70v-130h-105v667h105v-417l213 233h130l-200 -219z" />
    <glyph glyph-name="l" unicode="l" horiz-adv-x="241" 
d="M173 0h-105v667h105v-667z" />
    <glyph glyph-name="m" unicode="m" horiz-adv-x="834" 
d="M766 0h-105v315c0 52 -23 87 -80 87c-47 0 -91 -32 -112 -64v-338h-105v315c0 52 -22 87 -79 87c-47 0 -90 -33 -112 -64v-338h-105v483h105v-65c21 29 84 77 158 77c72 0 116 -36 132 -88c27 43 91 88 164 88c88 0 139 -48 139 -146v-349z" />
    <glyph glyph-name="n" unicode="n" horiz-adv-x="568" 
d="M500 0h-105v302c0 76 -39 100 -98 100c-53 0 -99 -32 -124 -64v-338h-105v483h105v-65c32 38 95 77 171 77c104 0 156 -56 156 -155v-340z" />
    <glyph glyph-name="o" unicode="o" horiz-adv-x="574" 
d="M287 -12c-154 0 -248 116 -248 254c0 139 94 253 248 253s248 -114 248 -253c0 -138 -94 -254 -248 -254zM287 81c90 0 139 75 139 161c0 85 -49 160 -139 160c-89 0 -139 -75 -139 -160c0 -86 50 -161 139 -161z" />
    <glyph glyph-name="p" unicode="p" horiz-adv-x="579" 
d="M328 -12c-61 0 -115 28 -155 79v-251h-105v667h105v-66c36 48 92 78 155 78c125 0 214 -94 214 -253s-89 -254 -214 -254zM297 81c83 0 137 67 137 161s-54 160 -137 160c-49 0 -100 -28 -124 -64v-191c23 -36 75 -66 124 -66z" />
    <glyph glyph-name="q" unicode="q" horiz-adv-x="579" 
d="M282 81c49 0 101 30 124 66v191c-24 36 -75 64 -124 64c-83 0 -137 -66 -137 -160s54 -161 137 -161zM251 -12c-125 0 -214 95 -214 254s89 253 214 253c63 0 119 -30 155 -78v66h105v-667h-105v251c-40 -51 -94 -79 -155 -79z" />
    <glyph glyph-name="r" unicode="r" horiz-adv-x="347" 
d="M173 0h-105v483h105v-70c37 46 95 82 157 82v-104c-9 2 -19 3 -32 3c-45 0 -104 -30 -125 -65v-329z" />
    <glyph glyph-name="s" unicode="s" horiz-adv-x="472" 
d="M234 -12c-83 0 -157 27 -207 76l48 75c34 -35 101 -67 163 -67c63 0 96 26 96 64c0 95 -292 27 -292 213c0 79 68 146 190 146c82 0 144 -29 187 -67l-44 -74c-29 32 -82 58 -143 58c-55 0 -89 -26 -89 -60c0 -85 292 -21 292 -213c0 -86 -71 -151 -201 -151z" />
    <glyph glyph-name="t" unicode="t" horiz-adv-x="319" 
d="M214 -12c-82 0 -124 44 -124 125v279h-80v91h80v132h105v-132h98v-91h-98v-253c0 -33 16 -58 46 -58c20 0 38 9 46 18l25 -80c-19 -17 -50 -31 -98 -31z" />
    <glyph glyph-name="u" unicode="u" horiz-adv-x="567" 
d="M499 0h-105v64c-34 -38 -94 -76 -170 -76c-104 0 -156 55 -156 153v342h105v-303c0 -75 38 -99 98 -99c53 0 99 31 123 63v339h105v-483z" />
    <glyph glyph-name="v" unicode="v" horiz-adv-x="503" 
d="M308 0h-113l-197 483h113l141 -362l141 362h112z" />
    <glyph glyph-name="w" unicode="w" horiz-adv-x="755" 
d="M600 0h-110l-113 354l-112 -354h-110l-150 483h109l102 -351l115 351h93l114 -351l102 351h110z" />
    <glyph glyph-name="x" unicode="x" horiz-adv-x="497" 
d="M492 0h-118l-125 178l-126 -178h-118l178 248l-167 235h118l114 -163l115 163h118l-167 -235z" />
    <glyph glyph-name="y" unicode="y" horiz-adv-x="503" 
d="M48 -189l15 94c11 -5 28 -8 40 -8c34 0 56 10 70 42l24 55l-199 489h113l141 -362l141 362h112l-233 -570c-33 -82 -90 -108 -165 -109c-15 0 -45 3 -59 7z" />
    <glyph glyph-name="z" unicode="z" horiz-adv-x="476" 
d="M430 0h-383v80l238 312h-238v91h379v-76l-242 -315h246v-92z" />
    <glyph glyph-name="braceleft" unicode="{" horiz-adv-x="277" 
d="M260 -190h-61c-73 0 -142 56 -142 148v187c0 37 -17 68 -52 68v62c35 0 52 31 52 68v186c0 92 69 149 142 149h61v-72h-61c-35 0 -65 -30 -65 -76v-197c0 -42 -12 -75 -45 -89c33 -14 45 -47 45 -89v-196c0 -45 30 -77 65 -77h61v-72z" />
    <glyph glyph-name="bar" unicode="|" horiz-adv-x="214" 
d="M143 -20h-72v707h72v-707z" />
    <glyph glyph-name="braceright" unicode="}" horiz-adv-x="277" 
d="M17 -190v72h61c35 0 65 32 65 77v196c0 42 12 75 45 89c-33 14 -45 47 -45 89v197c0 46 -30 76 -65 76h-61v72h61c73 0 142 -57 142 -149v-186c0 -37 17 -68 52 -68v-62c-35 0 -52 -31 -52 -68v-187c0 -92 -69 -148 -142 -148h-61z" />
    <glyph glyph-name="asciitilde" unicode="~" horiz-adv-x="507" 
d="M408 667l73 -8c-11 -120 -38 -242 -144 -242c-128 0 -98 182 -166 182c-44 0 -62 -85 -70 -183l-74 9c10 120 39 241 144 241c128 0 98 -183 166 -183c44 0 62 85 71 184z" />
    <glyph glyph-name="exclamdown" unicode="&#xa1;" horiz-adv-x="244" 
d="M58 -184l18 463h91l19 -463h-128zM52 424c0 38 32 70 70 70s69 -32 69 -70c0 -37 -31 -69 -69 -69s-70 32 -70 69z" />
    <glyph glyph-name="cent" unicode="&#xa2;" horiz-adv-x="498" 
d="M246 -100v91c-124 18 -207 119 -207 251c0 131 83 231 207 250v73h78v-72c73 -9 119 -44 149 -84l-69 -63c-21 29 -48 46 -80 53v-315c32 7 59 25 80 55l69 -65c-30 -39 -76 -75 -149 -84v-90h-78zM147 242c0 -76 38 -135 99 -154v307c-61 -20 -99 -77 -99 -153z" />
    <glyph glyph-name="sterling" unicode="&#xa3;" horiz-adv-x="536" 
d="M22 269v69h83c-29 38 -58 78 -58 137c0 120 115 202 234 202c103 0 180 -40 219 -117l-93 -55c-16 43 -60 76 -113 76c-66 0 -120 -42 -120 -108c0 -61 35 -94 62 -135h147v-69h-116c2 -10 3 -19 3 -30c0 -53 -32 -94 -70 -120c15 6 34 9 50 9c61 0 86 -37 138 -37
c43 0 77 20 90 38l48 -93c-28 -28 -74 -49 -142 -49c-89 0 -114 45 -181 45c-34 0 -76 -17 -116 -39l-40 83c72 33 118 81 118 136c0 21 -5 39 -13 57h-130z" />
    <glyph glyph-name="fraction" unicode="&#x2044;" horiz-adv-x="151" 
d="M322 667l-427 -667h-67l427 667h67z" />
    <glyph glyph-name="fraction" unicode="&#x2215;" horiz-adv-x="151" 
d="M322 667l-427 -667h-67l427 667h67z" />
    <glyph glyph-name="yen" unicode="&#xa5;" horiz-adv-x="637" 
d="M378 0h-117v118h-238v68h238v91h-238v68h193l-214 322h134l183 -285l183 285h134l-213 -322h192v-68h-237v-91h237v-68h-237v-118z" />
    <glyph glyph-name="florin" unicode="&#x192;" horiz-adv-x="445" 
d="M134 -161h-119l90 406h-60v93h80l41 182c21 95 96 157 187 157c44 0 80 -9 108 -39l-47 -86c-11 15 -26 22 -47 22c-42 0 -76 -28 -87 -77l-35 -159h124v-93h-144z" />
    <glyph glyph-name="section" unicode="&#xa7;" horiz-adv-x="477" 
d="M435 321c0 -54 -31 -101 -88 -127c52 -22 88 -57 88 -122c0 -97 -85 -153 -201 -153c-100 0 -162 37 -206 78l47 68c32 -35 90 -72 159 -72c59 0 100 26 100 70c0 108 -292 40 -292 223c0 68 53 110 105 125c-66 24 -105 63 -105 126c0 78 74 140 189 140
c95 0 154 -33 188 -69l-44 -62c-34 37 -88 57 -139 57c-56 0 -93 -25 -93 -65c0 -97 292 -28 292 -217zM331 304c0 49 -47 68 -96 80c-72 -17 -92 -47 -92 -84c0 -53 59 -67 119 -81c45 20 69 45 69 85z" />
    <glyph glyph-name="currency" unicode="&#xa4;" horiz-adv-x="522" 
d="M486 137l-29 -29l-56 57c-39 -33 -90 -51 -140 -51c-51 0 -101 18 -140 51l-57 -57l-28 29l56 56c-32 40 -50 90 -50 140c0 51 18 101 50 140l-56 57l28 28l57 -56c39 33 89 50 140 50c50 0 101 -18 140 -50l56 56l29 -28l-56 -57c32 -39 50 -89 50 -140
c0 -50 -18 -100 -50 -140zM432 333c0 95 -77 171 -171 171s-171 -76 -171 -171c0 -94 77 -171 171 -171s171 77 171 171z" />
    <glyph glyph-name="quotesingle" unicode="'" horiz-adv-x="214" 
d="M131 391h-48s-35 210 -35 227c0 33 27 59 59 59c33 0 59 -26 59 -59c0 -17 -35 -227 -35 -227z" />
    <glyph glyph-name="quotedblleft" unicode="&#x201c;" horiz-adv-x="430" 
d="M46 507c0 69 39 132 94 171l47 -39c-32 -19 -65 -60 -72 -94c3 1 11 3 17 3c34 0 60 -26 60 -63c0 -38 -31 -69 -68 -69c-41 0 -78 33 -78 91zM231 507c0 69 39 132 94 171l47 -39c-32 -19 -65 -60 -72 -94c3 1 11 3 17 3c34 0 60 -26 60 -63c0 -38 -31 -69 -68 -69
c-41 0 -78 33 -78 91z" />
    <glyph glyph-name="guillemotleft" unicode="&#xab;" horiz-adv-x="490" 
d="M460 63h-100l-160 180l160 177h100l-160 -177zM290 63h-100l-160 180l160 177h100l-160 -177z" />
    <glyph glyph-name="guilsinglleft" unicode="&#x2039;" horiz-adv-x="320" 
d="M290 63h-100l-160 180l160 177h100l-160 -177z" />
    <glyph glyph-name="guilsinglright" unicode="&#x203a;" horiz-adv-x="320" 
d="M290 243l-160 -180h-100l160 180l-160 177h100z" />
    <glyph glyph-name="endash" unicode="&#x2013;" horiz-adv-x="593" 
d="M563 197h-533v90h533v-90z" />
    <glyph glyph-name="dagger" unicode="&#x2020;" horiz-adv-x="271" 
d="M250 526l-89 4l4 -203h-59l4 203l-89 -4v54l89 -3l-4 100h59l-4 -100l89 3v-54z" />
    <glyph glyph-name="daggerdbl" unicode="&#x2021;" horiz-adv-x="271" 
d="M250 580v-54l-89 4v-202l89 4v-54l-89 3l4 -101h-59l4 101l-89 -3v54l89 -4v202l-89 -4v54l89 -3l-4 100h59l-4 -100z" />
    <glyph glyph-name="periodcentered" unicode="&#xb7;" horiz-adv-x="246" 
d="M192 245c0 -38 -31 -70 -69 -70s-70 32 -70 70c0 37 32 69 70 69s69 -32 69 -69z" />
    <glyph glyph-name="periodcentered" unicode="&#x2219;" horiz-adv-x="246" 
d="M192 245c0 -38 -31 -70 -69 -70s-70 32 -70 70c0 37 32 69 70 69s69 -32 69 -69z" />
    <glyph glyph-name="paragraph" unicode="&#xb6;" horiz-adv-x="449" 
d="M392 -100h-55v712h-83v-712h-55v423c-95 0 -172 77 -172 172s77 172 172 172h193v-767z" />
    <glyph glyph-name="bullet" unicode="&#x2022;" horiz-adv-x="358" 
d="M294 242c0 -62 -51 -113 -114 -113s-114 51 -114 113c0 63 51 114 114 114s114 -51 114 -114z" />
    <glyph glyph-name="quotesinglbase" unicode="&#x201a;" horiz-adv-x="245" 
d="M198 38c0 -69 -38 -132 -93 -171l-48 39c32 19 66 60 72 94c-2 -1 -10 -3 -17 -3c-33 0 -59 27 -59 64s30 68 68 68c41 0 77 -33 77 -91z" />
    <glyph glyph-name="quotedblbase" unicode="&#x201e;" horiz-adv-x="430" 
d="M198 38c0 -69 -38 -132 -93 -171l-48 39c32 19 66 60 72 94c-2 -1 -10 -3 -17 -3c-33 0 -59 27 -59 64s30 68 68 68c41 0 77 -33 77 -91zM383 38c0 -69 -38 -132 -93 -171l-48 39c32 19 66 60 72 94c-2 -1 -10 -3 -17 -3c-33 0 -59 27 -59 64s30 68 68 68
c41 0 77 -33 77 -91z" />
    <glyph glyph-name="quotedblright" unicode="&#x201d;" horiz-adv-x="430" 
d="M383 586c0 -69 -38 -131 -93 -170l-48 38c32 19 66 60 72 94c-2 -1 -10 -2 -17 -2c-33 0 -59 26 -59 63s30 68 68 68c41 0 77 -33 77 -91zM198 586c0 -69 -38 -131 -93 -170l-48 38c32 19 66 60 72 94c-2 -1 -10 -2 -17 -2c-33 0 -59 26 -59 63s30 68 68 68
c41 0 77 -33 77 -91z" />
    <glyph glyph-name="guillemotright" unicode="&#xbb;" horiz-adv-x="490" 
d="M290 243l-160 -180h-100l160 180l-160 177h100zM460 243l-160 -180h-100l160 180l-160 177h100z" />
    <glyph glyph-name="ellipsis" unicode="&#x2026;" horiz-adv-x="735" 
d="M192 60c0 -38 -31 -70 -69 -70s-70 32 -70 70c0 37 32 69 70 69s69 -32 69 -69zM437 60c0 -38 -31 -70 -69 -70s-70 32 -70 70c0 37 32 69 70 69s69 -32 69 -69zM682 60c0 -38 -31 -70 -69 -70s-70 32 -70 70c0 37 32 69 70 69s69 -32 69 -69z" />
    <glyph glyph-name="perthousand" unicode="&#x2030;" horiz-adv-x="1106" 
d="M360 511c0 -93 -66 -165 -166 -165c-99 0 -166 72 -166 165c0 94 67 166 166 166c100 0 166 -72 166 -166zM623 667l-427 -667h-67l426 667h68zM719 153c0 -93 -67 -165 -166 -165s-166 72 -166 165c0 94 67 166 166 166s166 -72 166 -166zM283 511c0 64 -37 106 -89 106
c-51 0 -88 -42 -88 -106c0 -62 37 -104 88 -104c52 0 89 42 89 104zM642 153c0 64 -37 106 -89 106s-89 -42 -89 -106c0 -62 37 -104 89 -104s89 42 89 104zM1078 153c0 -93 -67 -165 -166 -165s-166 72 -166 165c0 94 67 166 166 166s166 -72 166 -166zM1001 153
c0 64 -37 106 -89 106s-89 -42 -89 -106c0 -62 37 -104 89 -104s89 42 89 104z" />
    <glyph glyph-name="questiondown" unicode="&#xbf;" horiz-adv-x="396" 
d="M270 286c24 -23 35 -53 35 -86c0 -122 -161 -134 -161 -220c0 -39 31 -72 95 -72c62 0 106 28 139 70l68 -75c-51 -62 -128 -99 -218 -99c-126 0 -203 67 -203 157c0 149 178 161 178 250c0 16 -8 35 -22 45zM234 494c38 0 70 -32 70 -70s-32 -70 -70 -70s-70 32 -70 70
s32 70 70 70z" />
    <glyph glyph-name="grave" unicode="`" horiz-adv-x="240" 
d="M240 556h-75l-165 144h100z" />
    <glyph glyph-name="grave" unicode="&#x2cb;" horiz-adv-x="240" 
d="M240 556h-75l-165 144h100z" />
    <glyph glyph-name="acute" unicode="&#xb4;" horiz-adv-x="240" 
d="M240 700l-165 -144h-75l140 144h100z" />
    <glyph glyph-name="circumflex" unicode="&#x2c6;" horiz-adv-x="285" 
d="M285 556h-66l-78 97l-74 -97h-67l93 144h96z" />
    <glyph glyph-name="tilde" unicode="&#x2dc;" horiz-adv-x="321" 
d="M218 554c-69 0 -77 78 -119 78c-23 0 -41 -22 -41 -72h-58c0 82 36 134 103 134c70 0 77 -78 119 -78c23 0 42 22 42 72h57c0 -82 -36 -134 -103 -134z" />
    <glyph glyph-name="macron" unicode="&#xaf;" horiz-adv-x="363" 
d="M363 591h-363v62h363v-62z" />
    <glyph glyph-name="macron" unicode="&#x203e;" horiz-adv-x="363" 
d="M363 591h-363v62h363v-62z" />
    <glyph glyph-name="breve" unicode="&#x2d8;" horiz-adv-x="351" 
d="M351 647c-40 -54 -103 -88 -175 -88c-71 0 -135 34 -176 88l49 41c28 -40 73 -67 127 -67s98 25 128 67z" />
    <glyph glyph-name="dotaccent" unicode="&#x2d9;" horiz-adv-x="148" 
d="M74 561c-32 0 -59 26 -59 59c0 32 27 59 59 59s59 -27 59 -59c0 -33 -27 -59 -59 -59z" />
    <glyph glyph-name="dieresis" unicode="&#xa8;" horiz-adv-x="285" 
d="M306 608c0 -32 -26 -58 -59 -58c-32 0 -58 26 -58 58c0 33 26 59 58 59c33 0 59 -26 59 -59zM97 608c0 -32 -26 -58 -59 -58c-32 0 -59 26 -59 58c0 33 27 59 59 59c33 0 59 -26 59 -59z" />
    <glyph glyph-name="ring" unicode="&#x2da;" horiz-adv-x="204" 
d="M103 551c-56 0 -103 46 -103 102s47 103 103 103s101 -47 101 -103s-45 -102 -101 -102zM103 601c28 0 51 24 51 52c0 29 -23 52 -51 52c-29 0 -52 -23 -52 -52c0 -28 23 -52 52 -52z" />
    <glyph glyph-name="cedilla" unicode="&#xb8;" horiz-adv-x="214" 
d="M106 -194c-45 0 -85 15 -106 31l23 46c25 -20 53 -29 81 -29c29 0 55 12 55 36c0 19 -11 30 -32 30c-14 0 -27 -6 -35 -15l-40 23l30 83h55l-25 -64c10 7 23 11 36 11c37 0 66 -28 66 -69c0 -51 -48 -83 -108 -83z" />
    <glyph glyph-name="hungarumlaut" unicode="&#x2dd;" horiz-adv-x="324" 
d="M178 700l-115 -144h-63l90 144h88zM324 700l-115 -144h-63l90 144h88z" />
    <glyph glyph-name="ogonek" unicode="&#x2db;" horiz-adv-x="188" 
d="M142 -101l46 -27c-17 -32 -45 -58 -92 -58c-50 0 -96 26 -96 89c0 51 35 95 89 124l40 -27c-49 -24 -74 -55 -74 -93c0 -32 18 -46 41 -46c24 0 38 15 46 38z" />
    <glyph glyph-name="caron" unicode="&#x2c7;" horiz-adv-x="285" 
d="M192 556h-96l-96 144h67l77 -96l75 96h66z" />
    <glyph glyph-name="emdash" unicode="&#x2014;" horiz-adv-x="833" 
d="M803 197h-773v90h773v-90z" />
    <glyph glyph-name="AE" unicode="&#xc6;" horiz-adv-x="960" 
d="M912 0h-457v129h-246l-77 -129h-134l410 667h504v-103h-340v-172h333v-103h-333v-186h340v-103zM455 232v318l-191 -318h191z" />
    <glyph glyph-name="ordfeminine" unicode="&#xaa;" horiz-adv-x="382" 
d="M328 326h-77v34c-21 -23 -55 -42 -105 -42c-53 0 -111 36 -111 104c0 70 58 102 111 102c50 0 84 -17 105 -39v46c0 36 -32 58 -74 58c-33 0 -68 -13 -94 -43l-31 51c38 35 87 51 137 51c73 0 139 -29 139 -119v-203zM178 368c28 0 57 11 73 32v44c-16 21 -45 32 -73 32
c-37 0 -66 -20 -66 -54c0 -35 29 -54 66 -54z" />
    <glyph glyph-name="Lslash" unicode="&#x141;" horiz-adv-x="530" 
d="M10 205v97l78 45v320h117v-252l85 49v-98l-85 -49v-214h294v-103h-411v250z" />
    <glyph glyph-name="Oslash" unicode="&#xd8;" horiz-adv-x="765" 
d="M383 -12c-68 0 -128 16 -179 46l-25 -34h-87l55 76c-66 62 -105 152 -105 257c0 199 141 345 341 345c63 0 121 -15 170 -42l22 31h87l-51 -71c71 -62 113 -155 113 -263c0 -199 -142 -345 -341 -345zM383 92c134 0 221 104 221 241c0 68 -22 129 -60 172l-276 -383
c32 -19 71 -30 115 -30zM162 333c0 -64 18 -121 52 -164l275 379c-31 17 -66 26 -106 26c-135 0 -221 -103 -221 -241z" />
    <glyph glyph-name="OE" unicode="&#x152;" horiz-adv-x="1093" 
d="M1046 0h-457v97c-48 -72 -135 -109 -218 -109c-194 0 -329 145 -329 345s135 344 329 344c83 0 170 -35 218 -106v96h457v-103h-340v-172h333v-103h-333v-186h340v-103zM589 228v212c-36 88 -112 133 -202 133c-139 0 -225 -102 -225 -240c0 -137 86 -241 225 -241
c90 0 166 47 202 136z" />
    <glyph glyph-name="ordmasculine" unicode="&#xba;" horiz-adv-x="405" 
d="M202 318c-103 0 -168 76 -168 165c0 90 65 165 168 165c105 0 169 -75 169 -165c0 -89 -64 -165 -169 -165zM202 381c57 0 90 43 90 102c0 60 -33 101 -90 101c-55 0 -87 -41 -87 -101c0 -59 32 -102 87 -102z" />
    <glyph glyph-name="ae" unicode="&#xe6;" horiz-adv-x="878" 
d="M842 207h-372c8 -72 62 -131 153 -131c48 0 103 20 138 54l48 -71c-49 -46 -120 -71 -196 -71c-89 0 -158 39 -200 93c-37 -47 -103 -93 -198 -93c-86 0 -175 53 -175 159s80 159 167 159c64 0 120 -20 157 -61v71c0 56 -47 90 -113 90c-54 0 -102 -20 -143 -62l-44 73
c56 54 126 78 203 78c87 0 142 -30 165 -90c34 50 88 90 178 90c140 0 232 -110 232 -262v-26zM469 282h272c-3 57 -42 127 -137 127c-89 0 -131 -68 -135 -127zM376 129c-6 11 -12 35 -12 53c-25 34 -70 52 -115 52c-59 0 -104 -35 -104 -87c0 -53 45 -87 104 -87
c45 0 97 17 127 69z" />
    <glyph glyph-name="dotlessi" unicode="&#x131;" horiz-adv-x="241" 
d="M173 0h-105v483h105v-483z" />
    <glyph glyph-name="lslash" unicode="&#x142;" horiz-adv-x="299" 
d="M10 214v79l87 50v324h105v-264l88 51v-78l-88 -51v-325h-105v264z" />
    <glyph glyph-name="oslash" unicode="&#xf8;" horiz-adv-x="574" 
d="M119 0h-68l53 64c-42 46 -65 109 -65 178c0 139 94 253 248 253c54 0 101 -15 139 -39l23 27h69l-51 -61c44 -46 68 -110 68 -180c0 -138 -94 -254 -248 -254c-57 0 -105 15 -143 42zM287 81c90 0 139 75 139 161c0 36 -9 70 -26 98l-193 -233c22 -16 48 -26 80 -26z
M148 242c0 -35 8 -69 24 -96l191 233c-20 14 -46 23 -76 23c-89 0 -139 -75 -139 -160z" />
    <glyph glyph-name="oe" unicode="&#x153;" horiz-adv-x="945" 
d="M909 207h-373c8 -72 63 -133 154 -133c47 0 103 20 137 54l48 -69c-48 -46 -119 -71 -196 -71c-114 0 -170 69 -199 120c-29 -49 -84 -120 -193 -120c-154 0 -248 116 -248 254c0 139 94 253 248 253c109 0 165 -72 193 -120c27 49 85 120 191 120
c145 0 238 -110 238 -262v-26zM535 282h272c-2 57 -41 127 -136 127c-90 0 -131 -68 -136 -127zM426 242c0 90 -53 160 -139 160s-139 -70 -139 -160c0 -91 53 -162 139 -162s139 71 139 162z" />
    <glyph glyph-name="germandbls" unicode="&#xdf;" horiz-adv-x="623" 
d="M606 141c0 -85 -70 -153 -194 -153c-97 0 -147 36 -192 79l46 72c28 -36 84 -66 146 -66c63 0 93 30 93 64c0 94 -272 33 -272 213c0 105 133 124 133 177c0 38 -44 57 -87 57c-59 0 -105 -37 -105 -99v-485h-105v485c0 105 79 192 212 192c100 0 193 -52 193 -136
c0 -111 -140 -119 -140 -188c0 -85 272 -21 272 -212z" />
    <glyph glyph-name="onesuperior" unicode="&#xb9;" horiz-adv-x="264" 
d="M204 421h-81v297l-66 -69l-47 49l124 123h70v-400z" />
    <glyph glyph-name="logicalnot" unicode="&#xac;" horiz-adv-x="511" 
d="M473 463v-258h-70v191h-374v67h444z" />
    <glyph glyph-name="mu" unicode="&#xb5;" horiz-adv-x="567" 
d="M173 -184h-105v667h105v-303c0 -75 38 -100 98 -100c53 0 99 32 123 64v339h105v-483h-105v64c-34 -38 -94 -76 -170 -76c-19 0 -36 2 -51 5v-177z" />
    <glyph glyph-name="mu" unicode="&#x3bc;" horiz-adv-x="567" 
d="M173 -184h-105v667h105v-303c0 -75 38 -100 98 -100c53 0 99 32 123 64v339h105v-483h-105v64c-34 -38 -94 -76 -170 -76c-19 0 -36 2 -51 5v-177z" />
    <glyph glyph-name="trademark" unicode="&#x2122;" horiz-adv-x="454" 
d="M419 447h-28v182l-75 -182h-8l-75 182v-182h-28v220h43l64 -160l64 160h43v-220zM169 641h-62v-194h-28v194h-62v26h152v-26z" />
    <glyph glyph-name="Eth" unicode="&#xd0;" horiz-adv-x="736" 
d="M346 0h-249v286h-87v85h87v296h248c209 0 349 -138 349 -333c0 -197 -140 -334 -348 -334zM373 286h-159v-183h131c145 0 229 104 229 231c0 128 -80 230 -228 230h-132v-193h159v-85z" />
    <glyph glyph-name="onehalf" unicode="&#xbd;" horiz-adv-x="841" 
d="M619 667l-427 -667h-67l427 667h67zM801 0h-305v60c164 116 221 166 221 219c0 43 -34 62 -75 62c-47 0 -90 -24 -110 -50l-43 51c38 44 100 64 155 64c84 0 154 -40 154 -121c0 -72 -68 -136 -185 -220h188v-65zM204 267h-81v297l-66 -69l-47 49l124 123h70v-400z" />
    <glyph glyph-name="plusminus" unicode="&#xb1;" horiz-adv-x="502" 
d="M473 325h-185v-207h-74v207h-185v68h185v200h74v-200h185v-68zM473 0h-444v68h444v-68z" />
    <glyph glyph-name="Thorn" unicode="&#xde;" horiz-adv-x="609" 
d="M188 0h-117v667h117v-112h177c140 0 217 -97 217 -210c0 -114 -78 -208 -217 -208h-177v-137zM349 240c66 0 113 42 113 105c0 64 -47 107 -113 107h-161v-212h161z" />
    <glyph glyph-name="onequarter" unicode="&#xbc;" horiz-adv-x="806" 
d="M619 667l-427 -667h-67l427 667h67zM777 92h-54v-92h-80v92h-197v57l165 251h112v-244h54v-64zM643 156v175l-117 -175h117zM204 267h-81v297l-66 -69l-47 49l124 123h70v-400z" />
    <glyph glyph-name="divide" unicode="&#xf7;" horiz-adv-x="511" 
d="M310 521c0 -30 -24 -56 -54 -56s-55 26 -55 56s25 53 55 53s54 -23 54 -53zM482 304h-453v67h453v-67zM310 152c0 -30 -24 -55 -54 -55s-55 25 -55 55s25 54 55 54s54 -24 54 -54z" />
    <glyph glyph-name="brokenbar" unicode="&#xa6;" horiz-adv-x="214" 
d="M143 -20h-72v316h72v-316zM143 371h-72v316h72v-316z" />
    <glyph glyph-name="degree" unicode="&#xb0;" horiz-adv-x="302" 
d="M281 547c0 -71 -59 -129 -130 -129c-72 0 -129 58 -129 129c0 72 57 130 129 130c71 0 130 -58 130 -130zM221 547c0 38 -32 70 -70 70s-69 -32 -69 -70s31 -68 69 -68s70 30 70 68z" />
    <glyph glyph-name="thorn" unicode="&#xfe;" horiz-adv-x="579" 
d="M328 -12c-61 0 -115 28 -155 79v-251h-105v851h105v-250c36 48 92 78 155 78c125 0 214 -94 214 -253s-89 -254 -214 -254zM297 81c83 0 137 67 137 161s-54 160 -137 160c-49 0 -100 -28 -124 -64v-191c23 -36 75 -66 124 -66z" />
    <glyph glyph-name="threequarters" unicode="&#xbe;" horiz-adv-x="903" 
d="M716 667l-427 -667h-67l427 667h67zM873 92h-54v-92h-80v92h-197v57l165 251h112v-244h54v-64zM739 156v175l-117 -175h117zM355 377c0 -68 -62 -117 -160 -117c-74 0 -130 28 -158 64l41 52c28 -33 74 -51 115 -51c52 0 81 23 81 57c0 44 -41 58 -95 58
c-17 0 -36 0 -42 -1v64c7 -1 25 -1 42 -1c54 0 89 15 89 54c0 35 -36 52 -80 52c-42 0 -78 -14 -108 -45l-38 47c32 36 83 63 154 63c94 0 152 -42 152 -108c0 -53 -46 -84 -89 -91c40 -4 96 -35 96 -97z" />
    <glyph glyph-name="twosuperior" unicode="&#xb2;" 
d="M353 421h-305v60c164 116 221 166 221 219c0 43 -34 62 -75 62c-47 0 -90 -24 -110 -50l-43 51c38 44 100 64 155 64c84 0 154 -40 154 -121c0 -72 -68 -136 -185 -220h188v-65z" />
    <glyph glyph-name="registered" unicode="&#xae;" horiz-adv-x="494" 
d="M459 465c0 -117 -94 -212 -212 -212c-117 0 -212 95 -212 212c0 118 95 212 212 212c118 0 212 -94 212 -212zM429 465c0 102 -81 182 -182 182c-100 0 -181 -80 -181 -182c0 -99 81 -181 181 -181c101 0 182 82 182 181zM346 343h-41l-63 96h-43v-96h-33v243h99
c41 0 78 -29 78 -74c0 -54 -48 -72 -62 -72zM309 512c0 27 -23 45 -44 45h-66v-88h66c21 0 44 18 44 43z" />
    <glyph glyph-name="minus" unicode="&#x2212;" horiz-adv-x="502" 
d="M473 301h-444v67h444v-67z" />
    <glyph glyph-name="eth" unicode="&#xf0;" horiz-adv-x="574" 
d="M111 481l-21 52l112 49c-23 15 -45 29 -68 43l57 85c42 -26 82 -52 119 -80l105 46l22 -50l-79 -35c107 -94 177 -205 177 -341c0 -153 -94 -262 -248 -262c-150 0 -248 102 -248 241s92 239 216 239c66 0 119 -28 159 -90c-31 62 -90 118 -158 167zM287 81
c90 0 139 69 139 148c0 78 -49 147 -139 147c-89 0 -139 -69 -139 -147c0 -79 50 -148 139 -148z" />
    <glyph glyph-name="multiply" unicode="&#xd7;" horiz-adv-x="502" 
d="M396 142l-145 145l-144 -145l-48 48l145 144l-145 145l48 47l144 -144l145 144l47 -47l-144 -145l144 -144z" />
    <glyph glyph-name="threesuperior" unicode="&#xb3;" 
d="M355 531c0 -68 -62 -117 -160 -117c-74 0 -130 28 -158 64l41 52c28 -33 74 -51 115 -51c52 0 81 23 81 57c0 44 -41 58 -95 58c-17 0 -36 0 -42 -1v64c7 -1 25 -1 42 -1c54 0 89 15 89 54c0 35 -36 52 -80 52c-42 0 -78 -14 -108 -45l-38 47c32 36 83 63 154 63
c94 0 152 -42 152 -108c0 -53 -46 -84 -89 -91c40 -4 96 -35 96 -97z" />
    <glyph glyph-name="copyright" unicode="&#xa9;" horiz-adv-x="778" 
d="M734 334c0 -190 -154 -345 -345 -345c-190 0 -345 155 -345 345c0 191 155 345 345 345c191 0 345 -154 345 -345zM700 334c0 172 -139 311 -311 311c-170 0 -311 -139 -311 -311c0 -170 141 -311 311 -311c172 0 311 141 311 311zM512 218l29 -28
c-36 -42 -86 -68 -148 -68c-115 0 -208 92 -208 214s93 211 208 211c62 0 112 -25 147 -66l-28 -29c-26 35 -72 58 -119 58c-89 0 -166 -71 -166 -175c0 -101 77 -176 166 -176c48 0 93 24 119 59z" />
    <glyph glyph-name="Aacute" unicode="&#xc1;" horiz-adv-x="673" 
d="M503 872l-165 -144h-75l140 144h100zM672 0h-133l-49 129h-306l-49 -129h-133l262 667h146zM457 232l-120 318l-120 -318h240z" />
    <glyph glyph-name="Acircumflex" unicode="&#xc2;" horiz-adv-x="673" 
d="M481 728h-66l-78 97l-74 -97h-67l93 144h96zM672 0h-133l-49 129h-306l-49 -129h-133l262 667h146zM457 232l-120 318l-120 -318h240z" />
    <glyph glyph-name="Adieresis" unicode="&#xc4;" horiz-adv-x="673" 
d="M501 780c0 -32 -26 -58 -59 -58c-32 0 -58 26 -58 58c0 33 26 59 58 59c33 0 59 -26 59 -59zM292 780c0 -32 -26 -58 -59 -58c-32 0 -59 26 -59 58c0 33 27 59 59 59c33 0 59 -26 59 -59zM672 0h-133l-49 129h-306l-49 -129h-133l262 667h146zM457 232l-120 318
l-120 -318h240z" />
    <glyph glyph-name="Agrave" unicode="&#xc0;" horiz-adv-x="673" 
d="M413 728h-75l-165 144h100zM672 0h-133l-49 129h-306l-49 -129h-133l262 667h146zM457 232l-120 318l-120 -318h240z" />
    <glyph glyph-name="Aring" unicode="&#xc5;" horiz-adv-x="673" 
d="M338 693c-56 0 -103 46 -103 102s47 103 103 103s101 -47 101 -103s-45 -102 -101 -102zM338 743c28 0 51 24 51 52c0 29 -23 52 -51 52c-29 0 -52 -23 -52 -52c0 -28 23 -52 52 -52zM672 0h-133l-49 129h-306l-49 -129h-133l262 667h146zM457 232l-120 318l-120 -318
h240z" />
    <glyph glyph-name="Atilde" unicode="&#xc3;" horiz-adv-x="673" 
d="M395 726c-69 0 -77 78 -119 78c-23 0 -41 -22 -41 -72h-58c0 82 36 134 103 134c70 0 77 -78 119 -78c23 0 42 22 42 72h57c0 -82 -36 -134 -103 -134zM672 0h-133l-49 129h-306l-49 -129h-133l262 667h146zM457 232l-120 318l-120 -318h240z" />
    <glyph glyph-name="Ccedilla" unicode="&#xc7;" horiz-adv-x="682" 
d="M386 -190c-45 0 -85 15 -106 31l23 46c25 -20 53 -29 81 -29c29 0 55 12 55 36c0 19 -11 30 -32 30c-14 0 -27 -6 -35 -15l-40 23l21 58c-178 17 -311 152 -311 343c0 206 153 345 350 345c134 0 218 -69 267 -149l-99 -52c-32 56 -97 97 -168 97
c-132 0 -230 -100 -230 -241c0 -139 98 -241 230 -241c71 0 136 42 168 97l100 -50c-49 -77 -128 -146 -254 -151l-14 -37c10 7 23 11 36 11c37 0 66 -28 66 -69c0 -51 -48 -83 -108 -83z" />
    <glyph glyph-name="Eacute" unicode="&#xc9;" horiz-adv-x="577" 
d="M465 872l-165 -144h-75l140 144h100zM528 0h-457v667h457v-103h-340v-172h333v-103h-333v-186h340v-103z" />
    <glyph glyph-name="Ecircumflex" unicode="&#xca;" horiz-adv-x="577" 
d="M442 728h-66l-78 97l-74 -97h-67l93 144h96zM528 0h-457v667h457v-103h-340v-172h333v-103h-333v-186h340v-103z" />
    <glyph glyph-name="Edieresis" unicode="&#xcb;" horiz-adv-x="577" 
d="M464 780c0 -32 -26 -58 -59 -58c-32 0 -58 26 -58 58c0 33 26 59 58 59c33 0 59 -26 59 -59zM255 780c0 -32 -26 -58 -59 -58c-32 0 -59 26 -59 58c0 33 27 59 59 59c33 0 59 -26 59 -59zM528 0h-457v667h457v-103h-340v-172h333v-103h-333v-186h340v-103z" />
    <glyph glyph-name="Egrave" unicode="&#xc8;" horiz-adv-x="577" 
d="M375 728h-75l-165 144h100zM528 0h-457v667h457v-103h-340v-172h333v-103h-333v-186h340v-103z" />
    <glyph glyph-name="Iacute" unicode="&#xcd;" horiz-adv-x="259" 
d="M297 872l-165 -144h-75l140 144h100zM188 0h-117v667h117v-667z" />
    <glyph glyph-name="Icircumflex" unicode="&#xce;" horiz-adv-x="259" 
d="M272 728h-66l-78 97l-74 -97h-67l93 144h96zM188 0h-117v667h117v-667z" />
    <glyph glyph-name="Idieresis" unicode="&#xcf;" horiz-adv-x="259" 
d="M293 779c0 -32 -26 -58 -59 -58c-32 0 -58 26 -58 58c0 33 26 59 58 59c33 0 59 -26 59 -59zM84 779c0 -32 -26 -58 -59 -58c-32 0 -59 26 -59 58c0 33 27 59 59 59c33 0 59 -26 59 -59zM188 0h-117v667h117v-667z" />
    <glyph glyph-name="Igrave" unicode="&#xcc;" horiz-adv-x="259" 
d="M204 728h-75l-165 144h100zM188 0h-117v667h117v-667z" />
    <glyph glyph-name="Ntilde" unicode="&#xd1;" horiz-adv-x="720" 
d="M416 726c-69 0 -77 78 -119 78c-23 0 -41 -22 -41 -72h-58c0 82 36 134 103 134c70 0 77 -78 119 -78c23 0 42 22 42 72h57c0 -82 -36 -134 -103 -134zM649 0h-113l-348 477v-477h-117v667h120l341 -462v462h117v-667z" />
    <glyph glyph-name="Oacute" unicode="&#xd3;" horiz-adv-x="765" 
d="M549 872l-165 -144h-75l140 144h100zM383 -12c-200 0 -341 146 -341 345s141 345 341 345c199 0 341 -146 341 -345s-142 -345 -341 -345zM383 92c134 0 221 104 221 241c0 138 -87 241 -221 241c-135 0 -221 -103 -221 -241c0 -137 86 -241 221 -241z" />
    <glyph glyph-name="Ocircumflex" unicode="&#xd4;" horiz-adv-x="765" 
d="M528 728h-66l-78 97l-74 -97h-67l93 144h96zM383 -12c-200 0 -341 146 -341 345s141 345 341 345c199 0 341 -146 341 -345s-142 -345 -341 -345zM383 92c134 0 221 104 221 241c0 138 -87 241 -221 241c-135 0 -221 -103 -221 -241c0 -137 86 -241 221 -241z" />
    <glyph glyph-name="Odieresis" unicode="&#xd6;" horiz-adv-x="765" 
d="M547 780c0 -32 -26 -58 -59 -58c-32 0 -58 26 -58 58c0 33 26 59 58 59c33 0 59 -26 59 -59zM338 780c0 -32 -26 -58 -59 -58c-32 0 -59 26 -59 58c0 33 27 59 59 59c33 0 59 -26 59 -59zM383 -12c-200 0 -341 146 -341 345s141 345 341 345c199 0 341 -146 341 -345
s-142 -345 -341 -345zM383 92c134 0 221 104 221 241c0 138 -87 241 -221 241c-135 0 -221 -103 -221 -241c0 -137 86 -241 221 -241z" />
    <glyph glyph-name="Ograve" unicode="&#xd2;" horiz-adv-x="765" 
d="M461 728h-75l-165 144h100zM383 -12c-200 0 -341 146 -341 345s141 345 341 345c199 0 341 -146 341 -345s-142 -345 -341 -345zM383 92c134 0 221 104 221 241c0 138 -87 241 -221 241c-135 0 -221 -103 -221 -241c0 -137 86 -241 221 -241z" />
    <glyph glyph-name="Otilde" unicode="&#xd5;" horiz-adv-x="765" 
d="M441 726c-69 0 -77 78 -119 78c-23 0 -41 -22 -41 -72h-58c0 82 36 134 103 134c70 0 77 -78 119 -78c23 0 42 22 42 72h57c0 -82 -36 -134 -103 -134zM383 -12c-200 0 -341 146 -341 345s141 345 341 345c199 0 341 -146 341 -345s-142 -345 -341 -345zM383 92
c134 0 221 104 221 241c0 138 -87 241 -221 241c-135 0 -221 -103 -221 -241c0 -137 86 -241 221 -241z" />
    <glyph glyph-name="Scaron" unicode="&#x160;" horiz-adv-x="594" 
d="M339 728h-96l-96 144h67l77 -96l75 96h66zM300 -12c-123 0 -212 44 -272 106l66 91c45 -49 118 -93 211 -93c96 0 133 47 133 92c0 140 -388 53 -388 298c0 111 96 196 243 196c103 0 188 -34 249 -94l-66 -87c-53 53 -124 77 -194 77c-68 0 -112 -34 -112 -83
c0 -125 388 -48 388 -296c0 -111 -79 -207 -258 -207z" />
    <glyph glyph-name="Uacute" unicode="&#xda;" horiz-adv-x="720" 
d="M526 872l-165 -144h-75l140 144h100zM360 -12c-193 0 -289 111 -289 276v403h119v-400c0 -106 59 -175 170 -175s170 69 170 175v400h119v-403c0 -165 -95 -276 -289 -276z" />
    <glyph glyph-name="Ucircumflex" unicode="&#xdb;" horiz-adv-x="720" 
d="M508 728h-66l-78 97l-74 -97h-67l93 144h96zM360 -12c-193 0 -289 111 -289 276v403h119v-400c0 -106 59 -175 170 -175s170 69 170 175v400h119v-403c0 -165 -95 -276 -289 -276z" />
    <glyph glyph-name="Udieresis" unicode="&#xdc;" horiz-adv-x="720" 
d="M525 780c0 -32 -26 -58 -59 -58c-32 0 -58 26 -58 58c0 33 26 59 58 59c33 0 59 -26 59 -59zM316 780c0 -32 -26 -58 -59 -58c-32 0 -59 26 -59 58c0 33 27 59 59 59c33 0 59 -26 59 -59zM360 -12c-193 0 -289 111 -289 276v403h119v-400c0 -106 59 -175 170 -175
s170 69 170 175v400h119v-403c0 -165 -95 -276 -289 -276z" />
    <glyph glyph-name="Ugrave" unicode="&#xd9;" horiz-adv-x="720" 
d="M437 728h-75l-165 144h100zM360 -12c-193 0 -289 111 -289 276v403h119v-400c0 -106 59 -175 170 -175s170 69 170 175v400h119v-403c0 -165 -95 -276 -289 -276z" />
    <glyph glyph-name="Yacute" unicode="&#xdd;" horiz-adv-x="637" 
d="M487 872l-165 -144h-75l140 144h100zM378 0h-117v277l-259 390h134l183 -285l183 285h134l-258 -390v-277z" />
    <glyph glyph-name="Ydieresis" unicode="&#x178;" horiz-adv-x="637" 
d="M485 780c0 -32 -26 -58 -59 -58c-32 0 -58 26 -58 58c0 33 26 59 58 59c33 0 59 -26 59 -59zM276 780c0 -32 -26 -58 -59 -58c-32 0 -59 26 -59 58c0 33 27 59 59 59c33 0 59 -26 59 -59zM378 0h-117v277l-259 390h134l183 -285l183 285h134l-258 -390v-277z" />
    <glyph glyph-name="Zcaron" unicode="&#x17d;" horiz-adv-x="589" 
d="M344 728h-96l-96 144h67l77 -96l75 96h66zM545 0h-500v95l340 469h-340v103h493v-94l-342 -470h349v-103z" />
    <glyph glyph-name="aacute" unicode="&#xe1;" horiz-adv-x="537" 
d="M469 0h-105v53c-36 -42 -93 -65 -157 -65c-78 0 -167 54 -167 160c0 112 88 158 167 158c66 0 121 -21 157 -62v72c0 56 -47 90 -113 90c-54 0 -102 -20 -143 -62l-44 73c56 54 126 78 203 78c108 0 202 -45 202 -174v-321zM249 60c45 0 90 17 115 50v74
c-25 33 -70 50 -115 50c-59 0 -104 -35 -104 -87c0 -53 45 -87 104 -87zM436 700l-165 -144h-75l140 144h100z" />
    <glyph glyph-name="acircumflex" unicode="&#xe2;" horiz-adv-x="537" 
d="M469 0h-105v53c-36 -42 -93 -65 -157 -65c-78 0 -167 54 -167 160c0 112 88 158 167 158c66 0 121 -21 157 -62v72c0 56 -47 90 -113 90c-54 0 -102 -20 -143 -62l-44 73c56 54 126 78 203 78c108 0 202 -45 202 -174v-321zM249 60c45 0 90 17 115 50v74
c-25 33 -70 50 -115 50c-59 0 -104 -35 -104 -87c0 -53 45 -87 104 -87zM414 556h-66l-78 97l-74 -97h-67l93 144h96z" />
    <glyph glyph-name="adieresis" unicode="&#xe4;" horiz-adv-x="537" 
d="M469 0h-105v53c-36 -42 -93 -65 -157 -65c-78 0 -167 54 -167 160c0 112 88 158 167 158c66 0 121 -21 157 -62v72c0 56 -47 90 -113 90c-54 0 -102 -20 -143 -62l-44 73c56 54 126 78 203 78c108 0 202 -45 202 -174v-321zM249 60c45 0 90 17 115 50v74
c-25 33 -70 50 -115 50c-59 0 -104 -35 -104 -87c0 -53 45 -87 104 -87zM430 608c0 -32 -26 -58 -59 -58c-32 0 -58 26 -58 58c0 33 26 59 58 59c33 0 59 -26 59 -59zM221 608c0 -32 -26 -58 -59 -58c-32 0 -59 26 -59 58c0 33 27 59 59 59c33 0 59 -26 59 -59z" />
    <glyph glyph-name="agrave" unicode="&#xe0;" horiz-adv-x="537" 
d="M469 0h-105v53c-36 -42 -93 -65 -157 -65c-78 0 -167 54 -167 160c0 112 88 158 167 158c66 0 121 -21 157 -62v72c0 56 -47 90 -113 90c-54 0 -102 -20 -143 -62l-44 73c56 54 126 78 203 78c108 0 202 -45 202 -174v-321zM249 60c45 0 90 17 115 50v74
c-25 33 -70 50 -115 50c-59 0 -104 -35 -104 -87c0 -53 45 -87 104 -87zM343 556h-75l-165 144h100z" />
    <glyph glyph-name="aring" unicode="&#xe5;" horiz-adv-x="537" 
d="M469 0h-105v53c-36 -42 -93 -65 -157 -65c-78 0 -167 54 -167 160c0 112 88 158 167 158c66 0 121 -21 157 -62v72c0 56 -47 90 -113 90c-54 0 -102 -20 -143 -62l-44 73c56 54 126 78 203 78c108 0 202 -45 202 -174v-321zM249 60c45 0 90 17 115 50v74
c-25 33 -70 50 -115 50c-59 0 -104 -35 -104 -87c0 -53 45 -87 104 -87zM270 544c-56 0 -103 46 -103 102s47 103 103 103s101 -47 101 -103s-45 -102 -101 -102zM270 594c28 0 51 24 51 52c0 29 -23 52 -51 52c-29 0 -52 -23 -52 -52c0 -28 23 -52 52 -52z" />
    <glyph glyph-name="atilde" unicode="&#xe3;" horiz-adv-x="537" 
d="M469 0h-105v53c-36 -42 -93 -65 -157 -65c-78 0 -167 54 -167 160c0 112 88 158 167 158c66 0 121 -21 157 -62v72c0 56 -47 90 -113 90c-54 0 -102 -20 -143 -62l-44 73c56 54 126 78 203 78c108 0 202 -45 202 -174v-321zM249 60c45 0 90 17 115 50v74
c-25 33 -70 50 -115 50c-59 0 -104 -35 -104 -87c0 -53 45 -87 104 -87zM326 554c-69 0 -77 78 -119 78c-23 0 -41 -22 -41 -72h-58c0 82 36 134 103 134c70 0 77 -78 119 -78c23 0 42 22 42 72h57c0 -82 -36 -134 -103 -134z" />
    <glyph glyph-name="ccedilla" unicode="&#xe7;" horiz-adv-x="498" 
d="M291 -192c-45 0 -85 15 -106 31l23 46c25 -20 53 -29 81 -29c29 0 55 12 55 36c0 19 -11 30 -32 30c-14 0 -27 -6 -35 -15l-40 23l21 60c-130 13 -219 116 -219 252c0 146 103 253 249 253c95 0 151 -40 185 -86l-69 -63c-27 38 -64 56 -111 56c-87 0 -146 -66 -146 -160
s59 -161 146 -161c47 0 84 20 111 58l69 -65c-31 -41 -80 -78 -161 -85l-15 -40c10 7 23 11 36 11c37 0 66 -28 66 -69c0 -51 -48 -83 -108 -83z" />
    <glyph glyph-name="eacute" unicode="&#xe9;" horiz-adv-x="557" 
d="M292 -12c-146 0 -253 101 -253 254c0 140 102 253 245 253c145 0 237 -110 237 -262v-26h-372c8 -72 62 -133 153 -133c48 0 103 19 138 54l48 -69c-49 -46 -120 -71 -196 -71zM420 282c-3 57 -42 127 -137 127c-89 0 -131 -69 -135 -127h272zM450 700l-165 -144h-75
l140 144h100z" />
    <glyph glyph-name="ecircumflex" unicode="&#xea;" horiz-adv-x="557" 
d="M292 -12c-146 0 -253 101 -253 254c0 140 102 253 245 253c145 0 237 -110 237 -262v-26h-372c8 -72 62 -133 153 -133c48 0 103 19 138 54l48 -69c-49 -46 -120 -71 -196 -71zM420 282c-3 57 -42 127 -137 127c-89 0 -131 -69 -135 -127h272zM428 556h-66l-78 97
l-74 -97h-67l93 144h96z" />
    <glyph glyph-name="edieresis" unicode="&#xeb;" horiz-adv-x="557" 
d="M292 -12c-146 0 -253 101 -253 254c0 140 102 253 245 253c145 0 237 -110 237 -262v-26h-372c8 -72 62 -133 153 -133c48 0 103 19 138 54l48 -69c-49 -46 -120 -71 -196 -71zM420 282c-3 57 -42 127 -137 127c-89 0 -131 -69 -135 -127h272zM448 608
c0 -32 -26 -58 -59 -58c-32 0 -58 26 -58 58c0 33 26 59 58 59c33 0 59 -26 59 -59zM239 608c0 -32 -26 -58 -59 -58c-32 0 -59 26 -59 58c0 33 27 59 59 59c33 0 59 -26 59 -59z" />
    <glyph glyph-name="egrave" unicode="&#xe8;" horiz-adv-x="557" 
d="M292 -12c-146 0 -253 101 -253 254c0 140 102 253 245 253c145 0 237 -110 237 -262v-26h-372c8 -72 62 -133 153 -133c48 0 103 19 138 54l48 -69c-49 -46 -120 -71 -196 -71zM420 282c-3 57 -42 127 -137 127c-89 0 -131 -69 -135 -127h272zM359 556h-75l-165 144h100z
" />
    <glyph glyph-name="iacute" unicode="&#xed;" horiz-adv-x="241" 
d="M286 700l-165 -144h-75l140 144h100zM173 0h-105v483h105v-483z" />
    <glyph glyph-name="icircumflex" unicode="&#xee;" horiz-adv-x="241" 
d="M263 556h-66l-78 97l-74 -97h-67l93 144h96zM173 0h-105v483h105v-483z" />
    <glyph glyph-name="idieresis" unicode="&#xef;" horiz-adv-x="241" 
d="M284 608c0 -32 -26 -58 -59 -58c-32 0 -58 26 -58 58c0 33 26 59 58 59c33 0 59 -26 59 -59zM75 608c0 -32 -26 -58 -59 -58c-32 0 -59 26 -59 58c0 33 27 59 59 59c33 0 59 -26 59 -59zM173 0h-105v483h105v-483z" />
    <glyph glyph-name="igrave" unicode="&#xec;" horiz-adv-x="241" 
d="M195 556h-75l-165 144h100zM173 0h-105v483h105v-483z" />
    <glyph glyph-name="ntilde" unicode="&#xf1;" horiz-adv-x="568" 
d="M505 0h-105v302c0 76 -39 100 -98 100c-53 0 -99 -32 -124 -64v-338h-105v483h105v-65c32 38 95 77 171 77c104 0 156 -56 156 -155v-340zM342 554c-69 0 -77 78 -119 78c-23 0 -41 -22 -41 -72h-58c0 82 36 134 103 134c70 0 77 -78 119 -78c23 0 42 22 42 72h57
c0 -82 -36 -134 -103 -134z" />
    <glyph glyph-name="oacute" unicode="&#xf3;" horiz-adv-x="574" 
d="M287 -12c-154 0 -248 116 -248 254c0 139 94 253 248 253s248 -114 248 -253c0 -138 -94 -254 -248 -254zM287 81c90 0 139 75 139 161c0 85 -49 160 -139 160c-89 0 -139 -75 -139 -160c0 -86 50 -161 139 -161zM452 700l-165 -144h-75l140 144h100z" />
    <glyph glyph-name="ocircumflex" unicode="&#xf4;" horiz-adv-x="574" 
d="M287 -12c-154 0 -248 116 -248 254c0 139 94 253 248 253s248 -114 248 -253c0 -138 -94 -254 -248 -254zM287 81c90 0 139 75 139 161c0 85 -49 160 -139 160c-89 0 -139 -75 -139 -160c0 -86 50 -161 139 -161zM431 556h-66l-78 97l-74 -97h-67l93 144h96z" />
    <glyph glyph-name="odieresis" unicode="&#xf6;" horiz-adv-x="574" 
d="M287 -12c-154 0 -248 116 -248 254c0 139 94 253 248 253s248 -114 248 -253c0 -138 -94 -254 -248 -254zM287 81c90 0 139 75 139 161c0 85 -49 160 -139 160c-89 0 -139 -75 -139 -160c0 -86 50 -161 139 -161zM450 608c0 -32 -26 -58 -59 -58c-32 0 -58 26 -58 58
c0 33 26 59 58 59c33 0 59 -26 59 -59zM241 608c0 -32 -26 -58 -59 -58c-32 0 -59 26 -59 58c0 33 27 59 59 59c33 0 59 -26 59 -59z" />
    <glyph glyph-name="ograve" unicode="&#xf2;" horiz-adv-x="574" 
d="M287 -12c-154 0 -248 116 -248 254c0 139 94 253 248 253s248 -114 248 -253c0 -138 -94 -254 -248 -254zM287 81c90 0 139 75 139 161c0 85 -49 160 -139 160c-89 0 -139 -75 -139 -160c0 -86 50 -161 139 -161zM362 556h-75l-165 144h100z" />
    <glyph glyph-name="otilde" unicode="&#xf5;" horiz-adv-x="574" 
d="M287 -12c-154 0 -248 116 -248 254c0 139 94 253 248 253s248 -114 248 -253c0 -138 -94 -254 -248 -254zM287 81c90 0 139 75 139 161c0 85 -49 160 -139 160c-89 0 -139 -75 -139 -160c0 -86 50 -161 139 -161zM345 554c-69 0 -77 78 -119 78c-23 0 -41 -22 -41 -72
h-58c0 82 36 134 103 134c70 0 77 -78 119 -78c23 0 42 22 42 72h57c0 -82 -36 -134 -103 -134z" />
    <glyph glyph-name="scaron" unicode="&#x161;" horiz-adv-x="472" 
d="M234 -12c-83 0 -157 27 -207 76l48 75c34 -35 101 -67 163 -67c63 0 96 26 96 64c0 95 -292 27 -292 213c0 79 68 146 190 146c82 0 144 -29 187 -67l-44 -74c-29 32 -82 58 -143 58c-55 0 -89 -26 -89 -60c0 -85 292 -21 292 -213c0 -86 -71 -151 -201 -151zM283 556
h-96l-96 144h67l77 -96l75 96h66z" />
    <glyph glyph-name="uacute" unicode="&#xfa;" horiz-adv-x="567" 
d="M499 0h-105v64c-34 -38 -94 -76 -170 -76c-104 0 -156 55 -156 153v342h105v-303c0 -75 38 -99 98 -99c53 0 99 31 123 63v339h105v-483zM450 700l-165 -144h-75l140 144h100z" />
    <glyph glyph-name="ucircumflex" unicode="&#xfb;" horiz-adv-x="567" 
d="M499 0h-105v64c-34 -38 -94 -76 -170 -76c-104 0 -156 55 -156 153v342h105v-303c0 -75 38 -99 98 -99c53 0 99 31 123 63v339h105v-483zM427 556h-66l-78 97l-74 -97h-67l93 144h96z" />
    <glyph glyph-name="udieresis" unicode="&#xfc;" horiz-adv-x="567" 
d="M499 0h-105v64c-34 -38 -94 -76 -170 -76c-104 0 -156 55 -156 153v342h105v-303c0 -75 38 -99 98 -99c53 0 99 31 123 63v339h105v-483zM450 608c0 -32 -26 -58 -59 -58c-32 0 -58 26 -58 58c0 33 26 59 58 59c33 0 59 -26 59 -59zM241 608c0 -32 -26 -58 -59 -58
c-32 0 -59 26 -59 58c0 33 27 59 59 59c33 0 59 -26 59 -59z" />
    <glyph glyph-name="ugrave" unicode="&#xf9;" horiz-adv-x="567" 
d="M499 0h-105v64c-34 -38 -94 -76 -170 -76c-104 0 -156 55 -156 153v342h105v-303c0 -75 38 -99 98 -99c53 0 99 31 123 63v339h105v-483zM361 556h-75l-165 144h100z" />
    <glyph glyph-name="yacute" unicode="&#xfd;" horiz-adv-x="503" 
d="M48 -189l15 94c11 -5 28 -8 40 -8c34 0 56 10 70 42l24 55l-199 489h113l141 -362l141 362h112l-233 -570c-33 -82 -90 -108 -165 -109c-15 0 -45 3 -59 7zM417 700l-165 -144h-75l140 144h100z" />
    <glyph glyph-name="ydieresis" unicode="&#xff;" horiz-adv-x="503" 
d="M48 -189l15 94c11 -5 28 -8 40 -8c34 0 56 10 70 42l24 55l-199 489h113l141 -362l141 362h112l-233 -570c-33 -82 -90 -108 -165 -109c-15 0 -45 3 -59 7zM415 608c0 -32 -26 -58 -59 -58c-32 0 -58 26 -58 58c0 33 26 59 58 59c33 0 59 -26 59 -59zM206 608
c0 -32 -26 -58 -59 -58c-32 0 -59 26 -59 58c0 33 27 59 59 59c33 0 59 -26 59 -59z" />
    <glyph glyph-name="zcaron" unicode="&#x17e;" horiz-adv-x="476" 
d="M430 0h-383v80l238 312h-238v91h379v-76l-242 -315h246v-92zM281 556h-96l-96 144h67l77 -96l75 96h66z" />
    <glyph glyph-name="dollarsuperior" unicode="&#xf6e4;" horiz-adv-x="378" 
d="M167 361v53c-66 5 -115 29 -146 65l45 52c24 -25 60 -48 101 -54v114c-66 15 -138 36 -138 120c0 58 53 110 138 115v56h54v-57c56 -7 97 -27 123 -56l-46 -47c-19 20 -47 35 -77 41v-104c65 -15 136 -38 136 -121c0 -68 -47 -114 -136 -123v-54h-54zM275 528
c0 27 -23 40 -54 50v-101c36 7 54 28 54 51zM111 718c0 -25 23 -37 56 -46v93c-34 -5 -56 -24 -56 -47z" />
    <glyph glyph-name="parenleftsuperior" unicode="&#x207d;" horiz-adv-x="179" 
d="M169 376l-48 -20c-59 64 -96 168 -96 265c0 96 37 200 96 265l48 -20c-41 -78 -62 -147 -62 -245c0 -97 21 -167 62 -245z" />
    <glyph glyph-name="parenrightsuperior" unicode="&#x207e;" horiz-adv-x="179" 
d="M164 621c0 -97 -38 -200 -97 -265l-48 20c41 78 62 148 62 245c0 98 -21 167 -62 245l48 20c59 -65 97 -169 97 -265z" />
    <glyph glyph-name="commasuperior" unicode="&#xf6e2;" horiz-adv-x="149" 
d="M120 454c0 -46 -21 -87 -58 -113c-11 9 -21 17 -32 26c17 9 42 34 45 53c-1 0 -3 -1 -5 -1c-21 0 -44 19 -44 44s21 46 47 46c27 0 47 -22 47 -55z" />
    <glyph glyph-name="periodsuperior" unicode="&#xf6e8;" horiz-adv-x="152" 
d="M122 463c0 -25 -21 -46 -46 -46s-46 21 -46 46s21 46 46 46s46 -21 46 -46z" />
    <glyph glyph-name="asuperior" unicode="&#xf6e9;" horiz-adv-x="382" 
d="M328 326h-77v34c-21 -23 -55 -42 -105 -42c-53 0 -111 36 -111 104c0 70 58 102 111 102c50 0 84 -17 105 -39v46c0 36 -32 58 -74 58c-33 0 -68 -13 -94 -43l-31 51c38 35 87 51 137 51c73 0 139 -29 139 -119v-203zM178 368c28 0 57 11 73 32v44c-16 21 -45 32 -73 32
c-37 0 -66 -20 -66 -54c0 -35 29 -54 66 -54z" />
    <glyph glyph-name="bsuperior" unicode="&#xf6ea;" horiz-adv-x="412" 
d="M211 380c52 0 88 41 88 103s-36 103 -88 103c-30 0 -63 -15 -79 -36v-135c16 -20 49 -35 79 -35zM132 326h-77v434h78v-162c26 33 62 50 101 50c83 0 144 -62 144 -165c0 -104 -63 -165 -144 -165c-40 0 -76 19 -102 50v-42z" />
    <glyph glyph-name="centsuperior" unicode="&#xf6e0;" horiz-adv-x="310" 
d="M154 416v55c-77 11 -130 70 -130 150s53 139 130 150v44h53v-44c45 -6 74 -29 91 -53l-50 -39c-11 16 -24 27 -41 32v-182c17 6 30 18 41 34l50 -40c-17 -24 -46 -46 -91 -53v-54h-53zM99 621c0 -45 22 -78 55 -90v179c-34 -12 -55 -44 -55 -89z" />
    <glyph glyph-name="dsuperior" unicode="&#xf6eb;" horiz-adv-x="412" 
d="M358 326h-77v42c-26 -31 -62 -50 -103 -50c-81 0 -144 61 -144 165c0 103 62 165 144 165c40 0 76 -17 102 -50v162h78v-434zM201 380c31 0 64 15 80 35v135c-16 21 -49 36 -80 36c-52 0 -87 -41 -87 -103s35 -103 87 -103z" />
    <glyph glyph-name="esuperior" unicode="&#xf6ec;" 
d="M205 318c-97 0 -171 65 -171 165c0 91 70 165 166 165c95 0 160 -71 160 -173v-17h-245c7 -45 41 -82 98 -82c30 0 67 12 89 32l34 -45c-31 -30 -80 -45 -131 -45zM286 512c-2 36 -27 80 -86 80c-56 0 -82 -42 -85 -80h171z" />
    <glyph glyph-name="isuperior" unicode="&#xf6ed;" horiz-adv-x="175" 
d="M88 677c-26 0 -47 21 -47 47c0 25 21 47 47 47c25 0 46 -22 46 -47c0 -26 -21 -47 -46 -47zM126 326h-77v314h77v-314z" />
    <glyph glyph-name="lsuperior" unicode="&#xf6ee;" horiz-adv-x="187" 
d="M132 326h-77v434h77v-434z" />
    <glyph glyph-name="msuperior" unicode="&#xf6ef;" horiz-adv-x="585" 
d="M531 326h-77v202c0 32 -15 55 -51 55c-30 0 -59 -20 -72 -39v-218h-77v202c0 32 -14 55 -51 55c-30 0 -57 -20 -71 -39v-218h-77v314h77v-41c14 18 56 49 106 49c47 0 77 -23 89 -57c18 28 60 57 110 57c59 0 94 -32 94 -99v-223z" />
    <glyph glyph-name="nsuperior" unicode="&#x207f;" horiz-adv-x="406" 
d="M352 326h-78v193c0 48 -25 64 -63 64c-34 0 -63 -20 -79 -39v-218h-77v314h77v-41c22 24 62 49 114 49c79 0 106 -44 106 -105v-217z" />
    <glyph glyph-name="osuperior" unicode="&#xf6f0;" horiz-adv-x="405" 
d="M202 318c-103 0 -168 76 -168 165c0 90 65 165 168 165c105 0 169 -75 169 -165c0 -89 -64 -165 -169 -165zM202 381c57 0 90 43 90 102c0 60 -33 101 -90 101c-55 0 -87 -41 -87 -101c0 -59 32 -102 87 -102z" />
    <glyph glyph-name="rsuperior" unicode="&#xf6f1;" horiz-adv-x="250" 
d="M132 326h-77v314h77v-43c24 28 64 51 104 51v-70l-22 2c-30 0 -68 -17 -82 -38v-216z" />
    <glyph glyph-name="ssuperior" unicode="&#xf6f2;" horiz-adv-x="334" 
d="M162 318c-62 0 -107 22 -139 53l33 48c23 -24 66 -47 107 -47c40 0 62 16 62 41c0 66 -194 20 -194 142c0 48 47 93 130 93c63 0 103 -21 126 -45l-30 -45c-20 20 -56 36 -94 36c-36 0 -57 -16 -57 -38c0 -60 194 -12 194 -137c0 -56 -49 -101 -138 -101z" />
    <glyph glyph-name="tsuperior" unicode="&#xf6f3;" horiz-adv-x="223" 
d="M149 318c-56 0 -87 30 -87 85v182h-54v55h54v86h77v-86h66v-55h-66v-169c0 -20 11 -36 30 -36c13 0 26 5 30 11c6 -17 12 -35 18 -52c-13 -11 -34 -21 -68 -21z" />
    <glyph glyph-name="parenleftinferior" unicode="&#x208d;" horiz-adv-x="179" 
d="M169 -191l-48 -20c-59 64 -96 168 -96 265c0 96 37 200 96 265l48 -20c-41 -78 -62 -147 -62 -245c0 -97 21 -167 62 -245z" />
    <glyph glyph-name="parenrightinferior" unicode="&#x208e;" horiz-adv-x="179" 
d="M164 54c0 -97 -38 -200 -97 -265l-48 20c41 78 62 148 62 245c0 98 -21 167 -62 245l48 20c59 -65 97 -169 97 -265z" />
    <glyph glyph-name="hyphensuperior" unicode="&#xf6e6;" horiz-adv-x="184" 
d="M166 591h-148v61h148v-61z" />
    <glyph glyph-name="colonmonetary" unicode="&#x20a1;" horiz-adv-x="690" 
d="M398 -12c-5 0 -10 1 -15 1l-29 -89h-63l31 95c-24 5 -47 11 -69 20l-38 -115h-63l47 143c-92 59 -151 162 -151 290c0 206 153 345 350 345h12l30 90h63l-33 -98c25 -5 48 -13 69 -23l40 121h63l-51 -154c30 -25 55 -54 74 -85l-99 -52c-4 7 -9 14 -14 20l-134 -404
c63 7 119 46 148 96l100 -50c-51 -80 -134 -151 -268 -151zM168 333c0 -72 26 -133 69 -176l138 416c-120 -11 -207 -107 -207 -240zM288 119c21 -11 43 -20 68 -24l148 447c-20 13 -43 23 -67 28z" />
    <glyph glyph-name="rupiah" unicode="&#xf6dd;" horiz-adv-x="1156" 
d="M588 0h-136l-147 249h-117v-249h-117v667h293c132 0 219 -85 219 -209c0 -118 -78 -183 -159 -196zM349 352c66 0 114 42 114 107c0 64 -48 105 -114 105h-161v-212h161zM905 -12c-61 0 -115 28 -155 79v-251h-105v667h105v-66c36 48 92 78 155 78
c125 0 214 -94 214 -253s-89 -254 -214 -254zM874 81c83 0 137 67 137 161s-54 160 -137 160c-49 0 -100 -28 -124 -64v-191c23 -36 75 -66 124 -66z" />
    <glyph glyph-name="hypheninferior" unicode="&#xf6e5;" horiz-adv-x="184" 
d="M166 23h-148v61h148v-61z" />
    <glyph glyph-name="oneeighth" unicode="&#x215b;" horiz-adv-x="841" 
d="M619 667l-427 -667h-67l427 667h67zM807 104c0 -78 -78 -111 -162 -111s-163 33 -163 111c0 49 44 89 98 102c-50 12 -91 45 -91 94c0 76 81 106 156 106c74 0 156 -30 156 -106c0 -49 -41 -82 -91 -94c53 -13 97 -53 97 -102zM720 290c0 35 -31 54 -75 54
s-76 -19 -76 -54c0 -41 58 -54 76 -58c19 4 75 17 75 58zM727 111c0 47 -63 64 -82 66c-19 -2 -83 -19 -83 -66c0 -36 37 -56 83 -56c45 0 82 20 82 56zM204 267h-81v297l-66 -69l-47 49l124 123h70v-400z" />
    <glyph glyph-name="threeeighths" unicode="&#x215c;" horiz-adv-x="938" 
d="M716 667l-427 -667h-67l427 667h67zM903 104c0 -78 -78 -111 -162 -111s-163 33 -163 111c0 49 44 89 98 102c-50 12 -91 45 -91 94c0 76 81 106 156 106c74 0 156 -30 156 -106c0 -49 -41 -82 -91 -94c53 -13 97 -53 97 -102zM816 290c0 35 -31 54 -75 54
s-76 -19 -76 -54c0 -41 58 -54 76 -58c19 4 75 17 75 58zM823 111c0 47 -63 64 -82 66c-19 -2 -83 -19 -83 -66c0 -36 37 -56 83 -56c45 0 82 20 82 56zM355 377c0 -68 -62 -117 -160 -117c-74 0 -130 28 -158 64l41 52c28 -33 74 -51 115 -51c52 0 81 23 81 57
c0 44 -41 58 -95 58c-17 0 -36 0 -42 -1v64c7 -1 25 -1 42 -1c54 0 89 15 89 54c0 35 -36 52 -80 52c-42 0 -78 -14 -108 -45l-38 47c32 36 83 63 154 63c94 0 152 -42 152 -108c0 -53 -46 -84 -89 -91c40 -4 96 -35 96 -97z" />
    <glyph glyph-name="fiveeighths" unicode="&#x215d;" horiz-adv-x="933" 
d="M711 667l-427 -667h-67l427 667h67zM898 104c0 -78 -78 -111 -162 -111s-163 33 -163 111c0 49 44 89 98 102c-50 12 -91 45 -91 94c0 76 81 106 156 106c74 0 156 -30 156 -106c0 -49 -41 -82 -91 -94c53 -13 97 -53 97 -102zM811 290c0 35 -31 54 -75 54
s-76 -19 -76 -54c0 -41 58 -54 76 -58c19 4 75 17 75 58zM818 111c0 47 -63 64 -82 66c-19 -2 -83 -19 -83 -66c0 -36 37 -56 83 -56c45 0 82 20 82 56zM355 397c0 -82 -65 -137 -161 -137c-71 0 -123 25 -155 64l44 53c28 -34 67 -52 111 -52c51 0 82 31 82 69
c0 42 -31 70 -80 70c-35 0 -63 -12 -89 -38l-56 19v222h277v-65h-196v-113c19 19 53 35 92 35c69 0 131 -43 131 -127z" />
    <glyph glyph-name="seveneighths" unicode="&#x215e;" horiz-adv-x="855" 
d="M633 667l-427 -667h-67l427 667h67zM820 104c0 -78 -78 -111 -162 -111s-163 33 -163 111c0 49 44 89 98 102c-50 12 -91 45 -91 94c0 76 81 106 156 106c74 0 156 -30 156 -106c0 -49 -41 -82 -91 -94c53 -13 97 -53 97 -102zM733 290c0 35 -31 54 -75 54
s-76 -19 -76 -54c0 -41 58 -54 76 -58c19 4 75 17 75 58zM740 111c0 47 -63 64 -82 66c-19 -2 -83 -19 -83 -66c0 -36 37 -56 83 -56c45 0 82 20 82 56zM333 612l-155 -345h-90l157 335h-216v65h304v-55z" />
    <glyph glyph-name="onethird" unicode="&#x2153;" horiz-adv-x="841" 
d="M619 667l-427 -667h-67l427 667h67zM803 110c0 -68 -62 -117 -160 -117c-74 0 -130 28 -158 64l41 52c28 -33 74 -51 115 -51c52 0 81 23 81 57c0 44 -41 58 -95 58c-17 0 -36 0 -42 -1v64c7 -1 25 -1 42 -1c54 0 89 15 89 54c0 35 -36 52 -80 52c-42 0 -78 -14 -108 -45
l-38 47c32 36 83 63 154 63c94 0 152 -42 152 -108c0 -53 -46 -84 -89 -91c40 -4 96 -35 96 -97zM204 267h-81v297l-66 -69l-47 49l124 123h70v-400z" />
    <glyph glyph-name="twothirds" unicode="&#x2154;" horiz-adv-x="938" 
d="M716 667l-427 -667h-67l427 667h67zM899 110c0 -68 -62 -117 -160 -117c-74 0 -130 28 -158 64l41 52c28 -33 74 -51 115 -51c52 0 81 23 81 57c0 44 -41 58 -95 58c-17 0 -36 0 -42 -1v64c7 -1 25 -1 42 -1c54 0 89 15 89 54c0 35 -36 52 -80 52c-42 0 -78 -14 -108 -45
l-38 47c32 36 83 63 154 63c94 0 152 -42 152 -108c0 -53 -46 -84 -89 -91c40 -4 96 -35 96 -97zM353 267h-305v60c164 116 221 166 221 219c0 43 -34 62 -75 62c-47 0 -90 -24 -110 -50l-43 51c38 44 100 64 155 64c84 0 154 -40 154 -121c0 -72 -68 -136 -185 -220h188
v-65z" />
    <glyph glyph-name="zerosuperior" unicode="&#x2070;" 
d="M365 621c0 -102 -51 -207 -168 -207s-168 105 -168 207s51 206 168 206s168 -104 168 -206zM283 621c0 80 -24 141 -86 141c-63 0 -86 -61 -86 -141c0 -79 24 -142 86 -142s86 63 86 142z" />
    <glyph glyph-name="foursuperior" unicode="&#x2074;" 
d="M364 513h-54v-92h-80v92h-197v57l165 251h112v-244h54v-64zM230 577v175l-117 -175h117z" />
    <glyph glyph-name="fivesuperior" unicode="&#x2075;" 
d="M355 551c0 -82 -65 -137 -161 -137c-71 0 -123 25 -155 64l44 53c28 -34 67 -52 111 -52c51 0 82 31 82 69c0 42 -31 70 -80 70c-35 0 -63 -12 -89 -38l-56 19v222h277v-65h-196v-113c19 19 53 35 92 35c69 0 131 -43 131 -127z" />
    <glyph glyph-name="sixsuperior" unicode="&#x2076;" 
d="M362 550c0 -76 -62 -136 -155 -136c-123 0 -174 94 -174 207c0 119 66 206 187 206c50 0 91 -16 120 -42l-36 -57c-23 23 -46 34 -84 34c-70 0 -106 -58 -107 -122c0 -4 0 -9 1 -13c20 28 61 55 108 55c75 0 140 -46 140 -132zM281 547c0 50 -39 72 -81 72
c-32 0 -65 -16 -85 -44c3 -46 27 -96 89 -96c49 0 77 36 77 68z" />
    <glyph glyph-name="sevensuperior" unicode="&#x2077;" horiz-adv-x="367" 
d="M333 766l-155 -345h-90l157 335h-216v65h304v-55z" />
    <glyph glyph-name="eightsuperior" unicode="&#x2078;" 
d="M359 525c0 -78 -78 -111 -162 -111s-163 33 -163 111c0 49 44 89 98 102c-50 12 -91 45 -91 94c0 76 81 106 156 106c74 0 156 -30 156 -106c0 -49 -41 -82 -91 -94c53 -13 97 -53 97 -102zM272 711c0 35 -31 54 -75 54s-76 -19 -76 -54c0 -41 58 -54 76 -58
c19 4 75 17 75 58zM279 532c0 47 -63 64 -82 66c-19 -2 -83 -19 -83 -66c0 -36 37 -56 83 -56c45 0 82 20 82 56z" />
    <glyph glyph-name="ninesuperior" unicode="&#x2079;" 
d="M33 691c0 77 61 136 155 136c123 0 174 -93 174 -206c0 -120 -67 -207 -188 -207c-50 0 -90 17 -119 42l36 57c22 -22 46 -34 84 -34c67 0 105 56 106 123v12c-21 -27 -62 -55 -108 -55c-74 0 -140 47 -140 132zM114 694c0 -49 39 -71 80 -71c33 0 65 16 86 45
c-4 45 -28 94 -88 94c-50 0 -78 -36 -78 -68z" />
    <glyph glyph-name="zeroinferior" unicode="&#x2080;" 
d="M365 54c0 -102 -51 -207 -168 -207s-168 105 -168 207s51 206 168 206s168 -104 168 -206zM283 54c0 80 -24 141 -86 141c-63 0 -86 -61 -86 -141c0 -79 24 -142 86 -142s86 63 86 142z" />
    <glyph glyph-name="oneinferior" unicode="&#x2081;" horiz-adv-x="264" 
d="M204 -146h-81v297l-66 -69l-47 49l124 123h70v-400z" />
    <glyph glyph-name="twoinferior" unicode="&#x2082;" 
d="M353 -146h-305v60c164 116 221 166 221 219c0 43 -34 62 -75 62c-47 0 -90 -24 -110 -50l-43 51c38 44 100 64 155 64c84 0 154 -40 154 -121c0 -72 -68 -136 -185 -220h188v-65z" />
    <glyph glyph-name="threeinferior" unicode="&#x2083;" 
d="M355 -36c0 -68 -62 -117 -160 -117c-74 0 -130 28 -158 64l41 52c28 -33 74 -51 115 -51c52 0 81 23 81 57c0 44 -41 58 -95 58c-17 0 -36 0 -42 -1v64c7 -1 25 -1 42 -1c54 0 89 15 89 54c0 35 -36 52 -80 52c-42 0 -78 -14 -108 -45l-38 47c32 36 83 63 154 63
c94 0 152 -42 152 -108c0 -53 -46 -84 -89 -91c40 -4 96 -35 96 -97z" />
    <glyph glyph-name="fourinferior" unicode="&#x2084;" 
d="M364 -54h-54v-92h-80v92h-197v57l165 251h112v-244h54v-64zM230 10v175l-117 -175h117z" />
    <glyph glyph-name="fiveinferior" unicode="&#x2085;" 
d="M355 -16c0 -82 -65 -137 -161 -137c-71 0 -123 25 -155 64l44 53c28 -34 67 -52 111 -52c51 0 82 31 82 69c0 42 -31 70 -80 70c-35 0 -63 -12 -89 -38l-56 19v222h277v-65h-196v-113c19 19 53 35 92 35c69 0 131 -43 131 -127z" />
    <glyph glyph-name="sixinferior" unicode="&#x2086;" 
d="M362 -17c0 -76 -62 -136 -155 -136c-123 0 -174 94 -174 207c0 119 66 206 187 206c50 0 91 -16 120 -42l-36 -57c-23 23 -46 34 -84 34c-70 0 -106 -58 -107 -122c0 -4 0 -9 1 -13c20 28 61 55 108 55c75 0 140 -46 140 -132zM281 -20c0 50 -39 72 -81 72
c-32 0 -65 -16 -85 -44c3 -46 27 -96 89 -96c49 0 77 36 77 68z" />
    <glyph glyph-name="seveninferior" unicode="&#x2087;" horiz-adv-x="367" 
d="M333 199l-155 -345h-90l157 335h-216v65h304v-55z" />
    <glyph glyph-name="eightinferior" unicode="&#x2088;" 
d="M359 -42c0 -78 -78 -111 -162 -111s-163 33 -163 111c0 49 44 89 98 102c-50 12 -91 45 -91 94c0 76 81 106 156 106c74 0 156 -30 156 -106c0 -49 -41 -82 -91 -94c53 -13 97 -53 97 -102zM272 144c0 35 -31 54 -75 54s-76 -19 -76 -54c0 -41 58 -54 76 -58
c19 4 75 17 75 58zM279 -35c0 47 -63 64 -82 66c-19 -2 -83 -19 -83 -66c0 -36 37 -56 83 -56c45 0 82 20 82 56z" />
    <glyph glyph-name="nineinferior" unicode="&#x2089;" 
d="M33 124c0 77 61 136 155 136c123 0 174 -93 174 -206c0 -120 -67 -207 -188 -207c-50 0 -90 17 -119 42l36 57c22 -22 46 -34 84 -34c67 0 105 56 106 123v12c-21 -27 -62 -55 -108 -55c-74 0 -140 47 -140 132zM114 127c0 -49 39 -71 80 -71c33 0 65 16 86 45
c-4 45 -28 94 -88 94c-50 0 -78 -36 -78 -68z" />
    <glyph glyph-name="centinferior" unicode="&#xf6df;" horiz-adv-x="310" 
d="M154 -151v55c-77 11 -130 70 -130 150s53 139 130 150v44h53v-44c45 -6 74 -29 91 -53l-50 -39c-11 16 -24 27 -41 32v-181c17 5 30 17 41 33l50 -40c-17 -23 -46 -46 -91 -52v-55h-53zM99 54c0 -45 22 -78 55 -90v179c-34 -12 -55 -44 -55 -89z" />
    <glyph glyph-name="dollarinferior" unicode="&#xf6e3;" horiz-adv-x="378" 
d="M167 -206v54c-66 4 -115 29 -146 64l45 52c24 -24 60 -47 101 -54v114c-66 15 -138 36 -138 120c0 58 53 110 138 115v56h54v-57c56 -7 97 -27 123 -56l-46 -47c-19 20 -47 35 -77 41v-104c65 -15 136 -38 136 -121c0 -68 -47 -113 -136 -122v-55h-54zM275 -39
c0 27 -23 40 -54 50v-100c36 7 54 27 54 50zM111 151c0 -25 23 -37 56 -46v93c-34 -5 -56 -24 -56 -47z" />
    <glyph glyph-name="periodinferior" unicode="&#xf6e7;" horiz-adv-x="152" 
d="M122 -104c0 -25 -21 -46 -46 -46s-46 21 -46 46s21 46 46 46s46 -21 46 -46z" />
    <glyph glyph-name="commainferior" unicode="&#xf6e1;" horiz-adv-x="149" 
d="M120 -113c0 -46 -21 -87 -58 -113c-11 9 -21 17 -32 26c17 9 42 34 45 53c-1 0 -3 -1 -5 -1c-21 0 -44 19 -44 44s21 46 47 46c27 0 47 -22 47 -55z" />
    <glyph glyph-name="notequal" unicode="&#x2260;" horiz-adv-x="502" 
d="M131 93h-66l71 112h-107v68h150l79 123h-229v67h271l71 111h67l-71 -111h106v-67h-149l-78 -123h227v-68h-271z" />
    <glyph glyph-name="infinity" unicode="&#x221e;" horiz-adv-x="676" 
d="M191 164c-114 0 -162 89 -162 172s48 172 162 172c67 0 119 -48 147 -105c27 57 80 105 147 105c115 0 162 -89 162 -173c0 -82 -47 -171 -162 -171c-67 0 -120 47 -147 104c-28 -57 -80 -104 -147 -104zM477 231c59 0 97 43 97 104c0 62 -38 106 -97 106
c-52 0 -88 -52 -108 -106c20 -54 56 -104 108 -104zM199 231c52 0 89 51 108 105c-19 54 -56 105 -108 105c-59 0 -97 -43 -97 -105s38 -105 97 -105z" />
    <glyph glyph-name="lessequal" unicode="&#x2264;" horiz-adv-x="502" 
d="M473 105l-444 207v76l444 207v-80l-364 -166l364 -163v-81zM473 0h-444v68h444v-68z" />
    <glyph glyph-name="greaterequal" unicode="&#x2265;" horiz-adv-x="502" 
d="M473 312l-444 -207v81l364 163l-364 166v80l444 -207v-76zM473 0h-444v68h444v-68z" />
    <glyph glyph-name="partialdiff" unicode="&#x2202;" horiz-adv-x="574" 
d="M287 -12c-154 0 -248 109 -248 241c0 131 90 239 216 239c65 0 117 -23 155 -80c-37 88 -114 174 -233 234l82 61c135 -76 276 -234 276 -430c0 -156 -94 -265 -248 -265zM287 81c90 0 139 67 139 148c0 80 -49 147 -139 147c-89 0 -139 -67 -139 -147
c0 -81 50 -148 139 -148z" />
    <glyph glyph-name="summation" unicode="&#x2211;" horiz-adv-x="582" 
d="M408 298l-212 266h337v103h-483v-102l214 -268l-215 -284v-103h484v103h-343z" />
    <glyph glyph-name="product" unicode="&#x220f;" horiz-adv-x="754" 
d="M619 -90h-117v654h-250v-654h-117v654h-107v103h698v-103h-107v-654z" />
    <glyph glyph-name="pi" unicode="&#x3c0;" horiz-adv-x="595" 
d="M495 0h-106v407h-182v-407h-106v407h-73v93h539v-93h-72v-407z" />
    <glyph glyph-name="integral" unicode="&#x222b;" horiz-adv-x="363" 
d="M78 -100h-61v72h61c35 0 65 32 65 77v570c0 92 69 149 142 149h61v-72h-61c-35 0 -65 -30 -65 -76v-571c0 -93 -69 -149 -142 -149z" />
    <glyph glyph-name="Omega" unicode="&#x3a9;" horiz-adv-x="765" 
d="M60 0v103h127c-77 53 -145 138 -145 255c0 191 141 320 341 320s341 -129 341 -320c0 -117 -69 -202 -146 -255h128v-103h-256v103c85 23 154 110 154 231c0 124 -72 239 -221 239s-221 -115 -221 -239c0 -121 69 -208 154 -231v-103h-256z" />
    <glyph glyph-name="Omega" unicode="&#x2126;" horiz-adv-x="765" 
d="M60 0v103h127c-77 53 -145 138 -145 255c0 191 141 320 341 320s341 -129 341 -320c0 -117 -69 -202 -146 -255h128v-103h-256v103c85 23 154 110 154 231c0 124 -72 239 -221 239s-221 -115 -221 -239c0 -121 69 -208 154 -231v-103h-256z" />
    <glyph glyph-name="radical" unicode="&#x221a;" horiz-adv-x="701" 
d="M414 0h-73l-120 313l-141 -53l-21 65l208 75l112 -294l214 561h80z" />
    <glyph glyph-name="approxequal" unicode="&#x2248;" horiz-adv-x="502" 
d="M29 205v74c33 -21 74 -31 111 -31c96 0 110 55 221 55c38 0 81 -10 112 -25v-74c-33 21 -75 31 -112 31c-95 0 -110 -54 -221 -54c-37 0 -80 9 -111 24zM29 391v74c33 -21 74 -31 111 -31c96 0 110 54 221 54c38 0 81 -9 112 -25v-74c-33 21 -75 32 -112 32
c-95 0 -110 -55 -221 -55c-37 0 -80 9 -111 25z" />
    <glyph glyph-name="Delta" unicode="&#x394;" horiz-adv-x="673" 
d="M672 0h-670l262 667h146zM506 103l-169 447l-170 -447h339z" />
    <glyph glyph-name="Delta" unicode="&#x2206;" horiz-adv-x="673" 
d="M672 0h-670l262 667h146zM506 103l-169 447l-170 -447h339z" />
    <glyph glyph-name="nbspace" unicode="&#xa0;" horiz-adv-x="258" 
 />
    <glyph glyph-name="lozenge" unicode="&#x25ca;" horiz-adv-x="375" 
d="M198 0h-21l-158 334l158 333h21l158 -333zM188 41l132 293l-133 292l-132 -292z" />
    <glyph glyph-name="Euro" unicode="&#x20ac;" horiz-adv-x="703" 
d="M415 -12c-162 0 -294 94 -336 242h-53v68h40c-1 11 -1 23 -1 35c0 13 1 25 2 38h-41v68h54c43 146 174 239 335 239c134 0 218 -69 267 -149l-99 -52c-32 56 -97 97 -168 97c-96 0 -174 -53 -209 -135h268v-68h-287c-1 -13 -2 -25 -2 -38c0 -12 0 -24 2 -35h287v-68h-269
c35 -84 113 -138 210 -138c71 0 136 42 168 97l100 -50c-51 -80 -134 -151 -268 -151z" />
    <glyph glyph-name="uni2318" unicode="&#x2318;" horiz-adv-x="667" 
d="M222 154v70h-69c-39 0 -68 -32 -68 -70c0 -39 30 -70 68 -70c39 0 69 31 69 70zM222 444v70c0 39 -30 70 -68 70c-39 0 -69 -31 -69 -70c0 -38 30 -70 69 -70h68zM265 265h137v137h-137v-137zM583 154c0 38 -30 70 -68 70h-70v-70c0 -39 31 -70 69 -70c39 0 69 31 69 70z
M583 514c0 39 -31 70 -69 70s-69 -31 -69 -70v-70h70c38 0 68 32 68 70zM625 154c0 -61 -50 -112 -111 -112s-112 51 -112 112v70h-137v-70c0 -61 -51 -112 -112 -112s-111 51 -111 112s50 111 111 111h69v137h-68c-61 0 -112 51 -112 112s51 111 112 111s111 -50 111 -111
v-70h137v70c0 61 51 111 112 111s111 -50 111 -111s-50 -112 -111 -112h-69v-137h69c61 0 111 -50 111 -111z" />
    <glyph glyph-name="uni2318" unicode="&#xf8ff;" horiz-adv-x="667" 
d="M222 154v70h-69c-39 0 -68 -32 -68 -70c0 -39 30 -70 68 -70c39 0 69 31 69 70zM222 444v70c0 39 -30 70 -68 70c-39 0 -69 -31 -69 -70c0 -38 30 -70 69 -70h68zM265 265h137v137h-137v-137zM583 154c0 38 -30 70 -68 70h-70v-70c0 -39 31 -70 69 -70c39 0 69 31 69 70z
M583 514c0 39 -31 70 -69 70s-69 -31 -69 -70v-70h70c38 0 68 32 68 70zM625 154c0 -61 -50 -112 -111 -112s-112 51 -112 112v70h-137v-70c0 -61 -51 -112 -112 -112s-111 51 -111 112s50 111 111 111h69v137h-68c-61 0 -112 51 -112 112s51 111 112 111s111 -50 111 -111
v-70h137v70c0 61 51 111 112 111s111 -50 111 -111s-50 -112 -111 -112h-69v-137h69c61 0 111 -50 111 -111z" />
    <glyph glyph-name="f.alt1" horiz-adv-x="309" 
d="M199 0h-105v392h-80v91h80v27c0 108 64 167 152 167c34 0 63 -6 85 -18l-23 -79c-11 7 -25 11 -42 11c-42 0 -67 -27 -67 -81v-27h98v-91h-98v-392z" />
    <glyph glyph-name="l.alt1" horiz-adv-x="286" 
d="M192 -12c-81 0 -124 44 -124 125v554h105v-528c0 -33 16 -58 46 -58c20 0 39 9 47 18l25 -80c-19 -17 -50 -31 -99 -31z" />
    <glyph glyph-name="a.alt1" horiz-adv-x="581" 
d="M513 0h-105v66c-37 -48 -92 -78 -155 -78c-123 0 -214 94 -214 254c0 156 90 253 214 253c61 0 116 -27 155 -79v67h105v-483zM284 81c49 0 101 29 124 65v191c-23 36 -75 65 -124 65c-84 0 -137 -67 -137 -160c0 -94 53 -161 137 -161z" />
    <glyph glyph-name="y.alt1" horiz-adv-x="567" 
d="M258 -196c-81 0 -142 23 -195 72l49 76c35 -44 91 -62 146 -62c85 0 136 48 136 134v56c-34 -38 -94 -76 -170 -76c-104 0 -156 55 -156 153v326h105v-287c0 -75 38 -99 98 -99c53 0 99 31 123 63v323h105v-459c0 -145 -102 -220 -241 -220z" />
    <glyph glyph-name="G.alt1" horiz-adv-x="717" 
d="M382 -13c-184 0 -340 137 -340 346c0 210 156 345 350 345c130 0 215 -62 268 -138l-95 -55c-36 50 -99 89 -173 89c-132 0 -230 -100 -230 -241c0 -139 98 -241 230 -241c113 0 176 76 195 164h-237v103h364c0 -226 -122 -372 -332 -372z" />
    <glyph glyph-name="G.smcp.alt1" horiz-adv-x="637" 
d="M332 -12c-162 0 -293 115 -293 287c0 173 131 287 298 287c103 0 179 -49 226 -110l-88 -53c-30 39 -79 67 -138 67c-108 0 -187 -80 -187 -191c0 -110 79 -191 187 -191c75 0 141 46 155 126h-178v90h295c0 -199 -113 -312 -277 -312z" />
    <glyph glyph-name="Gbreve.alt1" horiz-adv-x="738" 
d="M569 806c-40 -54 -103 -88 -175 -88c-71 0 -135 34 -176 88l49 41c28 -40 73 -67 127 -67s98 25 128 67zM382 -13c-184 0 -340 137 -340 346c0 210 156 345 350 345c130 0 215 -62 268 -138l-95 -55c-36 50 -99 89 -173 89c-132 0 -230 -100 -230 -241
c0 -139 98 -241 230 -241c113 0 176 76 195 164h-237v103h364c0 -226 -122 -372 -332 -372z" />
    <glyph glyph-name="Gbreve.smcp.alt1" horiz-adv-x="633" 
d="M514 687c-40 -54 -103 -88 -175 -88c-71 0 -135 34 -176 88l49 41c28 -40 73 -67 127 -67s98 25 128 67zM332 -12c-162 0 -293 115 -293 287c0 173 131 287 298 287c103 0 179 -49 226 -110l-88 -53c-30 39 -79 67 -138 67c-108 0 -187 -80 -187 -191
c0 -110 79 -191 187 -191c75 0 141 46 155 126h-178v90h295c0 -199 -113 -312 -277 -312z" />
    <glyph glyph-name="Gcommaaccent.alt1" horiz-adv-x="738" 
d="M456 -138c0 -58 -33 -111 -78 -143l-38 31c28 17 56 53 60 82c-1 -1 -8 -2 -13 -2c-28 0 -49 21 -49 51c0 31 25 56 55 56c33 0 63 -27 63 -75zM382 -13c-184 0 -340 137 -340 346c0 210 156 345 350 345c130 0 215 -62 268 -138l-95 -55c-36 50 -99 89 -173 89
c-132 0 -230 -100 -230 -241c0 -139 98 -241 230 -241c113 0 176 76 195 164h-237v103h364c0 -226 -122 -372 -332 -372z" />
    <glyph glyph-name="Gcommaaccent.smcp.alt1" horiz-adv-x="637" 
d="M402 -138c0 -58 -33 -111 -78 -143l-38 31c28 17 56 53 60 82c-1 -1 -8 -2 -13 -2c-28 0 -49 21 -49 51c0 31 25 56 55 56c33 0 63 -27 63 -75zM332 -12c-162 0 -293 115 -293 287c0 173 131 287 298 287c103 0 179 -49 226 -110l-88 -53c-30 39 -79 67 -138 67
c-108 0 -187 -80 -187 -191c0 -110 79 -191 187 -191c75 0 141 46 155 126h-178v90h295c0 -199 -113 -312 -277 -312z" />
    <glyph glyph-name="lslash.alt1" horiz-adv-x="314" 
d="M10 214v79l87 50v324h105v-264l88 51v-78l-88 -51v-186c0 -33 16 -58 46 -58c20 0 39 9 47 18l25 -80c-19 -17 -50 -31 -99 -31c-81 0 -124 44 -124 125v151z" />
    <glyph glyph-name="lacute.alt1" horiz-adv-x="286" 
d="M286 872l-165 -144h-75l140 144h100zM192 -12c-81 0 -124 44 -124 125v554h105v-528c0 -33 16 -58 46 -58c20 0 39 9 47 18l25 -80c-19 -17 -50 -31 -99 -31z" />
    <glyph glyph-name="lcommaaccent.alt1" horiz-adv-x="286" 
d="M197 -138c0 -58 -33 -111 -78 -143l-38 31c28 17 56 53 60 82c-1 -1 -8 -2 -13 -2c-28 0 -49 21 -49 51c0 31 25 56 55 56c33 0 63 -27 63 -75zM192 -12c-81 0 -124 44 -124 125v554h105v-528c0 -33 16 -58 46 -58c20 0 39 9 47 18l25 -80c-19 -17 -50 -31 -99 -31z" />
    <glyph glyph-name="lcaron.alt1" horiz-adv-x="331" 
d="M352 605c0 -58 -33 -111 -78 -143l-38 31c28 17 56 53 60 82c-1 -1 -8 -2 -13 -2c-28 0 -49 21 -49 51c0 31 25 56 55 56c33 0 63 -27 63 -75zM192 -12c-81 0 -124 44 -124 125v554h105v-528c0 -33 16 -58 46 -58c20 0 39 9 47 18l25 -80c-19 -17 -50 -31 -99 -31z" />
    <glyph glyph-name="aacute.alt1" horiz-adv-x="581" 
d="M463 700l-165 -144h-75l140 144h100zM513 0h-105v66c-37 -48 -92 -78 -155 -78c-123 0 -214 94 -214 254c0 156 90 253 214 253c61 0 116 -27 155 -79v67h105v-483zM284 81c49 0 101 29 124 65v191c-23 36 -75 65 -124 65c-84 0 -137 -67 -137 -160
c0 -94 53 -161 137 -161z" />
    <glyph glyph-name="agrave.alt1" horiz-adv-x="581" 
d="M374 556h-75l-165 144h100zM513 0h-105v66c-37 -48 -92 -78 -155 -78c-123 0 -214 94 -214 254c0 156 90 253 214 253c61 0 116 -27 155 -79v67h105v-483zM284 81c49 0 101 29 124 65v191c-23 36 -75 65 -124 65c-84 0 -137 -67 -137 -160c0 -94 53 -161 137 -161z" />
    <glyph glyph-name="acircumflex.alt1" horiz-adv-x="581" 
d="M440 556h-66l-78 97l-74 -97h-67l93 144h96zM513 0h-105v66c-37 -48 -92 -78 -155 -78c-123 0 -214 94 -214 254c0 156 90 253 214 253c61 0 116 -27 155 -79v67h105v-483zM284 81c49 0 101 29 124 65v191c-23 36 -75 65 -124 65c-84 0 -137 -67 -137 -160
c0 -94 53 -161 137 -161z" />
    <glyph glyph-name="adieresis.alt1" horiz-adv-x="581" 
d="M461 608c0 -32 -26 -58 -59 -58c-32 0 -58 26 -58 58c0 33 26 59 58 59c33 0 59 -26 59 -59zM252 608c0 -32 -26 -58 -59 -58c-32 0 -59 26 -59 58c0 33 27 59 59 59c33 0 59 -26 59 -59zM513 0h-105v66c-37 -48 -92 -78 -155 -78c-123 0 -214 94 -214 254
c0 156 90 253 214 253c61 0 116 -27 155 -79v67h105v-483zM284 81c49 0 101 29 124 65v191c-23 36 -75 65 -124 65c-84 0 -137 -67 -137 -160c0 -94 53 -161 137 -161z" />
    <glyph glyph-name="atilde.alt1" horiz-adv-x="581" 
d="M356 554c-69 0 -77 78 -119 78c-23 0 -41 -22 -41 -72h-58c0 82 36 134 103 134c70 0 77 -78 119 -78c23 0 42 22 42 72h57c0 -82 -36 -134 -103 -134zM513 0h-105v66c-37 -48 -92 -78 -155 -78c-123 0 -214 94 -214 254c0 156 90 253 214 253c61 0 116 -27 155 -79v67
h105v-483zM284 81c49 0 101 29 124 65v191c-23 36 -75 65 -124 65c-84 0 -137 -67 -137 -160c0 -94 53 -161 137 -161z" />
    <glyph glyph-name="aring.alt1" horiz-adv-x="581" 
d="M297 551c-56 0 -103 46 -103 102s47 103 103 103s101 -47 101 -103s-45 -102 -101 -102zM297 601c28 0 51 24 51 52c0 29 -23 52 -51 52c-29 0 -52 -23 -52 -52c0 -28 23 -52 52 -52zM513 0h-105v66c-37 -48 -92 -78 -155 -78c-123 0 -214 94 -214 254
c0 156 90 253 214 253c61 0 116 -27 155 -79v67h105v-483zM284 81c49 0 101 29 124 65v191c-23 36 -75 65 -124 65c-84 0 -137 -67 -137 -160c0 -94 53 -161 137 -161z" />
    <glyph glyph-name="amacron.alt1" horiz-adv-x="581" 
d="M480 591h-363v62h363v-62zM513 0h-105v66c-37 -48 -92 -78 -155 -78c-123 0 -214 94 -214 254c0 156 90 253 214 253c61 0 116 -27 155 -79v67h105v-483zM284 81c49 0 101 29 124 65v191c-23 36 -75 65 -124 65c-84 0 -137 -67 -137 -160c0 -94 53 -161 137 -161z" />
    <glyph glyph-name="abreve.alt1" horiz-adv-x="581" 
d="M473 647c-40 -54 -103 -88 -175 -88c-71 0 -135 34 -176 88l49 41c28 -40 73 -67 127 -67s98 25 128 67zM513 0h-105v66c-37 -48 -92 -78 -155 -78c-123 0 -214 94 -214 254c0 156 90 253 214 253c61 0 116 -27 155 -79v67h105v-483zM284 81c49 0 101 29 124 65v191
c-23 36 -75 65 -124 65c-84 0 -137 -67 -137 -160c0 -94 53 -161 137 -161z" />
    <glyph glyph-name="aogonek.alt1" horiz-adv-x="581" 
d="M513 0c-49 -24 -74 -55 -74 -93c0 -32 18 -46 41 -46c24 0 38 15 46 38l46 -27c-17 -32 -45 -58 -92 -58c-50 0 -96 26 -96 89c0 37 18 71 49 97h-25v66c-37 -48 -92 -78 -155 -78c-123 0 -214 94 -214 254c0 156 90 253 214 253c61 0 116 -27 155 -79v67h105v-483z
M284 81c49 0 101 29 124 65v191c-23 36 -75 65 -124 65c-84 0 -137 -67 -137 -160c0 -94 53 -161 137 -161z" />
    <glyph glyph-name="yacute.alt1" horiz-adv-x="567" 
d="M448 700l-165 -144h-75l140 144h100zM258 -196c-81 0 -142 23 -195 72l49 76c35 -44 91 -62 146 -62c85 0 136 48 136 134v56c-34 -38 -94 -76 -170 -76c-104 0 -156 55 -156 153v326h105v-287c0 -75 38 -99 98 -99c53 0 99 31 123 63v323h105v-459
c0 -145 -102 -220 -241 -220z" />
    <glyph glyph-name="ydieresis.alt1" horiz-adv-x="567" 
d="M444 608c0 -32 -26 -58 -59 -58c-32 0 -58 26 -58 58c0 33 26 59 58 59c33 0 59 -26 59 -59zM235 608c0 -32 -26 -58 -59 -58c-32 0 -59 26 -59 58c0 33 27 59 59 59c33 0 59 -26 59 -59zM258 -196c-81 0 -142 23 -195 72l49 76c35 -44 91 -62 146 -62
c85 0 136 48 136 134v56c-34 -38 -94 -76 -170 -76c-104 0 -156 55 -156 153v326h105v-287c0 -75 38 -99 98 -99c53 0 99 31 123 63v323h105v-459c0 -145 -102 -220 -241 -220z" />
    <glyph glyph-name="ae.alt1" horiz-adv-x="923" 
d="M513 0h-105v66c-37 -48 -92 -78 -155 -78c-123 0 -214 94 -214 254c0 156 90 253 214 253c61 0 116 -27 155 -79v67h105v-79c34 56 89 91 165 91c128 0 209 -110 209 -262v-26h-374c8 -72 63 -131 154 -131c47 0 103 19 137 54l48 -71c-39 -40 -99 -71 -167 -71
c-77 0 -136 33 -172 91v-79zM284 81c49 0 101 29 124 65v191c-23 36 -75 65 -124 65c-84 0 -137 -67 -137 -160c0 -94 53 -161 137 -161zM785 282c-2 57 -41 127 -136 127c-90 0 -131 -69 -136 -127h272z" />
    <glyph glyph-name="zero.pzero" horiz-adv-x="617" 
d="M309 -12c-61 0 -110 19 -149 49l-24 -37h-84l58 90c-47 66 -68 156 -68 243c0 168 79 344 267 344c59 0 108 -18 146 -48l25 38h84l-58 -91c47 -66 69 -155 69 -243c0 -167 -79 -345 -266 -345zM309 92c108 0 147 114 147 241c0 49 -6 97 -19 136l-218 -340
c22 -23 52 -37 90 -37zM161 333c0 -49 5 -95 18 -134l218 339c-22 22 -51 35 -88 35c-109 0 -148 -112 -148 -240z" />
    <glyph glyph-name="Gcircumflex.alt1" horiz-adv-x="738" 
d="M532 728h-66l-78 97l-74 -97h-67l93 144h96zM382 -13c-184 0 -340 137 -340 346c0 210 156 345 350 345c130 0 215 -62 268 -138l-95 -55c-36 50 -99 89 -173 89c-132 0 -230 -100 -230 -241c0 -139 98 -241 230 -241c113 0 176 76 195 164h-237v103h364
c0 -226 -122 -372 -332 -372z" />
    <glyph glyph-name="Gdotaccent.alt1" horiz-adv-x="738" 
d="M389 722c-32 0 -59 26 -59 59c0 32 27 59 59 59s59 -27 59 -59c0 -33 -27 -59 -59 -59zM382 -13c-184 0 -340 137 -340 346c0 210 156 345 350 345c130 0 215 -62 268 -138l-95 -55c-36 50 -99 89 -173 89c-132 0 -230 -100 -230 -241c0 -139 98 -241 230 -241
c113 0 176 76 195 164h-237v103h364c0 -226 -122 -372 -332 -372z" />
    <glyph glyph-name="Gcircumflex.smcp.alt1" horiz-adv-x="620" 
d="M332 -12c-162 0 -293 115 -293 287c0 173 131 287 298 287c103 0 179 -49 226 -110l-88 -53c-30 39 -79 67 -138 67c-108 0 -187 -80 -187 -191c0 -110 79 -191 187 -191c75 0 141 46 155 126h-178v90h295c0 -199 -113 -312 -277 -312zM475 606h-66l-78 97l-74 -97h-67
l93 144h96z" />
    <glyph glyph-name="Gdotaccent.smcp.alt1" horiz-adv-x="620" 
d="M332 -12c-162 0 -293 115 -293 287c0 173 131 287 298 287c103 0 179 -49 226 -110l-88 -53c-30 39 -79 67 -138 67c-108 0 -187 -80 -187 -191c0 -110 79 -191 187 -191c75 0 141 46 155 126h-178v90h295c0 -199 -113 -312 -277 -312zM338 621c-32 0 -59 26 -59 59
c0 32 27 59 59 59s59 -27 59 -59c0 -33 -27 -59 -59 -59z" />
    <glyph glyph-name="aeacute.alt1" horiz-adv-x="878" 
d="M513 0h-105v66c-37 -48 -92 -78 -155 -78c-123 0 -214 94 -214 254c0 156 90 253 214 253c61 0 116 -27 155 -79v67h105v-79c34 56 89 91 165 91c128 0 209 -110 209 -262v-26h-374c8 -72 63 -131 154 -131c47 0 103 19 137 54l48 -71c-39 -40 -99 -71 -167 -71
c-77 0 -136 33 -172 91v-79zM284 81c49 0 101 29 124 65v191c-23 36 -75 65 -124 65c-84 0 -137 -67 -137 -160c0 -94 53 -161 137 -161zM785 282c-2 57 -41 127 -136 127c-90 0 -131 -69 -136 -127h272zM615 700l-165 -144h-75l140 144h100z" />
    <glyph glyph-name="ycircumflex.alt1" horiz-adv-x="567" 
d="M428 556h-66l-78 97l-74 -97h-67l93 144h96zM258 -196c-81 0 -142 23 -195 72l49 76c35 -44 91 -62 146 -62c85 0 136 48 136 134v56c-34 -38 -94 -76 -170 -76c-104 0 -156 55 -156 153v326h105v-287c0 -75 38 -99 98 -99c53 0 99 31 123 63v323h105v-459
c0 -145 -102 -220 -241 -220z" />
    <glyph glyph-name="ldot.alt1" horiz-adv-x="351" 
d="M192 -12c-81 0 -124 44 -124 125v554h105v-528c0 -33 16 -58 46 -58c20 0 39 9 47 18l25 -80c-19 -17 -50 -31 -99 -31zM366 245c0 -38 -31 -70 -69 -70s-70 32 -70 70c0 37 32 69 70 69s69 -32 69 -69z" />
    <glyph glyph-name="fl.alt1" horiz-adv-x="594" 
d="M199 0h-105v392h-80v91h80v27c0 108 64 167 152 167c34 0 63 -6 85 -18l-23 -79c-11 7 -25 11 -42 11c-42 0 -67 -27 -67 -81v-27h98v-91h-98v-392zM501 -12c-81 0 -124 44 -124 125v554h105v-528c0 -33 16 -58 46 -58c20 0 39 9 47 18l25 -80c-19 -17 -50 -31 -99 -31z
" />
    <glyph glyph-name="f_f_l.alt1" horiz-adv-x="903" 
d="M199 0h-105v392h-80v91h80v27c0 105 61 167 152 167c44 0 87 -11 116 -42l-41 -65c-14 13 -32 21 -55 21c-42 0 -67 -27 -67 -81v-27h98v-91h-98v-392zM508 0h-105v392h-80v91h80v27c0 108 64 167 152 167c34 0 63 -6 85 -18l-23 -79c-11 7 -25 11 -42 11
c-42 0 -67 -27 -67 -81v-27h98v-91h-98v-392zM809 -12c-81 0 -124 44 -124 125v554h105v-528c0 -33 16 -58 46 -58c20 0 39 9 47 18l25 -80c-19 -17 -50 -31 -99 -31z" />
    <glyph glyph-name="Amacron" unicode="&#x100;" horiz-adv-x="673" 
d="M672 0h-133l-49 129h-306l-49 -129h-133l262 667h146zM457 232l-120 318l-120 -318h240zM518 748h-363v62h363v-62z" />
    <glyph glyph-name="amacron" unicode="&#x101;" horiz-adv-x="537" 
d="M469 0h-105v53c-36 -42 -93 -65 -157 -65c-78 0 -167 54 -167 160c0 112 88 158 167 158c66 0 121 -21 157 -62v72c0 56 -47 90 -113 90c-54 0 -102 -20 -143 -62l-44 73c56 54 126 78 203 78c108 0 202 -45 202 -174v-321zM249 60c45 0 90 17 115 50v74
c-25 33 -70 50 -115 50c-59 0 -104 -35 -104 -87c0 -53 45 -87 104 -87zM448 576h-363v62h363v-62z" />
    <glyph glyph-name="Abreve" unicode="&#x102;" horiz-adv-x="673" 
d="M672 0h-133l-49 129h-306l-49 -129h-133l262 667h146zM457 232l-120 318l-120 -318h240zM512 806c-40 -54 -103 -88 -175 -88c-71 0 -135 34 -176 88l49 41c28 -40 73 -67 127 -67s98 25 128 67z" />
    <glyph glyph-name="abreve" unicode="&#x103;" horiz-adv-x="537" 
d="M469 0h-105v53c-36 -42 -93 -65 -157 -65c-78 0 -167 54 -167 160c0 112 88 158 167 158c66 0 121 -21 157 -62v72c0 56 -47 90 -113 90c-54 0 -102 -20 -143 -62l-44 73c56 54 126 78 203 78c108 0 202 -45 202 -174v-321zM249 60c45 0 90 17 115 50v74
c-25 33 -70 50 -115 50c-59 0 -104 -35 -104 -87c0 -53 45 -87 104 -87zM442 647c-40 -54 -103 -88 -175 -88c-71 0 -135 34 -176 88l49 41c28 -40 73 -67 127 -67s98 25 128 67z" />
    <glyph glyph-name="Aogonek" unicode="&#x104;" horiz-adv-x="673" 
d="M685 -101l46 -27c-17 -32 -45 -58 -92 -58c-50 0 -96 26 -96 89c0 37 18 71 49 97h-53l-49 129h-306l-49 -129h-133l262 667h146l262 -667c-49 -24 -74 -55 -74 -93c0 -32 18 -46 41 -46c24 0 38 15 46 38zM457 232l-120 318l-120 -318h240z" />
    <glyph glyph-name="aogonek" unicode="&#x105;" horiz-adv-x="537" 
d="M482 -101l46 -27c-17 -32 -45 -58 -92 -58c-50 0 -96 26 -96 89c0 37 18 71 49 97h-25v53c-36 -42 -93 -65 -157 -65c-78 0 -167 54 -167 160c0 112 88 158 167 158c66 0 121 -21 157 -62v72c0 56 -47 90 -113 90c-54 0 -102 -20 -143 -62l-44 73c56 54 126 78 203 78
c108 0 202 -45 202 -174v-321c-49 -24 -74 -55 -74 -93c0 -32 18 -46 41 -46c24 0 38 15 46 38zM249 60c45 0 90 17 115 50v74c-25 33 -70 50 -115 50c-59 0 -104 -35 -104 -87c0 -53 45 -87 104 -87z" />
    <glyph glyph-name="Cacute" unicode="&#x106;" horiz-adv-x="682" 
d="M392 -12c-197 0 -350 140 -350 345c0 206 153 345 350 345c134 0 218 -69 267 -149l-99 -52c-32 56 -97 97 -168 97c-132 0 -230 -100 -230 -241c0 -139 98 -241 230 -241c71 0 136 42 168 97l100 -50c-51 -80 -134 -151 -268 -151zM556 872l-165 -144h-75l140 144h100z
" />
    <glyph glyph-name="cacute" unicode="&#x107;" horiz-adv-x="498" 
d="M288 -12c-146 0 -249 108 -249 254s103 253 249 253c95 0 151 -40 185 -86l-69 -63c-27 38 -64 56 -111 56c-87 0 -146 -66 -146 -160s59 -161 146 -161c47 0 84 20 111 58l69 -65c-34 -45 -90 -86 -185 -86zM459 700l-165 -144h-75l140 144h100z" />
    <glyph glyph-name="Ccircumflex" unicode="&#x108;" horiz-adv-x="682" 
d="M392 -12c-197 0 -350 140 -350 345c0 206 153 345 350 345c134 0 218 -69 267 -149l-99 -52c-32 56 -97 97 -168 97c-132 0 -230 -100 -230 -241c0 -139 98 -241 230 -241c71 0 136 42 168 97l100 -50c-51 -80 -134 -151 -268 -151zM534 728h-66l-78 97l-74 -97h-67
l93 144h96z" />
    <glyph glyph-name="ccircumflex" unicode="&#x109;" horiz-adv-x="498" 
d="M288 -12c-146 0 -249 108 -249 254s103 253 249 253c95 0 151 -40 185 -86l-69 -63c-27 38 -64 56 -111 56c-87 0 -146 -66 -146 -160s59 -161 146 -161c47 0 84 20 111 58l69 -65c-34 -45 -90 -86 -185 -86zM437 556h-66l-78 97l-74 -97h-67l93 144h96z" />
    <glyph glyph-name="Cdotaccent" unicode="&#x10a;" horiz-adv-x="682" 
d="M392 -12c-197 0 -350 140 -350 345c0 206 153 345 350 345c134 0 218 -69 267 -149l-99 -52c-32 56 -97 97 -168 97c-132 0 -230 -100 -230 -241c0 -139 98 -241 230 -241c71 0 136 42 168 97l100 -50c-51 -80 -134 -151 -268 -151zM394 722c-32 0 -59 26 -59 59
c0 32 27 59 59 59s59 -27 59 -59c0 -33 -27 -59 -59 -59z" />
    <glyph glyph-name="cdotaccent" unicode="&#x10b;" horiz-adv-x="498" 
d="M288 -12c-146 0 -249 108 -249 254s103 253 249 253c95 0 151 -40 185 -86l-69 -63c-27 38 -64 56 -111 56c-87 0 -146 -66 -146 -160s59 -161 146 -161c47 0 84 20 111 58l69 -65c-34 -45 -90 -86 -185 -86zM289 561c-32 0 -59 26 -59 59c0 32 27 59 59 59
s59 -27 59 -59c0 -33 -27 -59 -59 -59z" />
    <glyph glyph-name="Ccaron" unicode="&#x10c;" horiz-adv-x="682" 
d="M392 -12c-197 0 -350 140 -350 345c0 206 153 345 350 345c134 0 218 -69 267 -149l-99 -52c-32 56 -97 97 -168 97c-132 0 -230 -100 -230 -241c0 -139 98 -241 230 -241c71 0 136 42 168 97l100 -50c-51 -80 -134 -151 -268 -151zM441 728h-96l-96 144h67l77 -96l75 96
h66z" />
    <glyph glyph-name="ccaron" unicode="&#x10d;" horiz-adv-x="498" 
d="M288 -12c-146 0 -249 108 -249 254s103 253 249 253c95 0 151 -40 185 -86l-69 -63c-27 38 -64 56 -111 56c-87 0 -146 -66 -146 -160s59 -161 146 -161c47 0 84 20 111 58l69 -65c-34 -45 -90 -86 -185 -86zM344 556h-96l-96 144h67l77 -96l75 96h66z" />
    <glyph glyph-name="Dcaron" unicode="&#x10e;" horiz-adv-x="710" 
d="M320 0h-249v667h248c209 0 349 -138 349 -333c0 -197 -140 -334 -348 -334zM319 103c145 0 229 104 229 231c0 128 -80 230 -228 230h-132v-461h131zM407 728h-96l-96 144h67l77 -96l75 96h66z" />
    <glyph glyph-name="dcaron" unicode="&#x10f;" horiz-adv-x="671" 
d="M513 0h-105v66c-37 -48 -92 -78 -155 -78c-123 0 -214 94 -214 254c0 156 90 253 214 253c61 0 117 -27 155 -79v251h105v-667zM284 81c49 0 101 29 124 65v191c-23 36 -75 65 -124 65c-84 0 -137 -67 -137 -160c0 -94 53 -161 137 -161zM675 605
c0 -58 -33 -111 -78 -143l-38 31c28 17 56 53 60 82c-1 -1 -8 -2 -13 -2c-28 0 -49 21 -49 51c0 31 25 56 55 56c33 0 63 -27 63 -75z" />
    <glyph glyph-name="Dcroat" unicode="&#x110;" horiz-adv-x="736" 
d="M346 0h-249v286h-87v85h87v296h248c209 0 349 -138 349 -333c0 -197 -140 -334 -348 -334zM373 286h-159v-183h131c145 0 229 104 229 231c0 128 -80 230 -228 230h-132v-193h159v-85z" />
    <glyph glyph-name="dcroat" unicode="&#x111;" horiz-adv-x="586" 
d="M513 0h-105v66c-37 -48 -92 -78 -155 -78c-123 0 -214 94 -214 254c0 156 90 253 214 253c61 0 117 -27 155 -79v115h-150v62h150v74h105v-74h63v-62h-63v-531zM284 81c49 0 101 29 124 65v191c-23 36 -75 65 -124 65c-84 0 -137 -67 -137 -160c0 -94 53 -161 137 -161z
" />
    <glyph glyph-name="Emacron" unicode="&#x112;" horiz-adv-x="577" 
d="M528 0h-457v667h457v-103h-340v-172h333v-103h-333v-186h340v-103zM478 748h-363v62h363v-62z" />
    <glyph glyph-name="emacron" unicode="&#x113;" horiz-adv-x="557" 
d="M292 -12c-146 0 -253 101 -253 254c0 140 102 253 245 253c145 0 237 -110 237 -262v-26h-372c8 -72 62 -133 153 -133c48 0 103 19 138 54l48 -69c-49 -46 -120 -71 -196 -71zM420 282c-3 57 -42 127 -137 127c-89 0 -131 -69 -135 -127h272zM461 576h-363v62h363v-62z
" />
    <glyph glyph-name="Ebreve" unicode="&#x114;" horiz-adv-x="577" 
d="M528 0h-457v667h457v-103h-340v-172h333v-103h-333v-186h340v-103zM472 806c-40 -54 -103 -88 -175 -88c-71 0 -135 34 -176 88l49 41c28 -40 73 -67 127 -67s98 25 128 67z" />
    <glyph glyph-name="ebreve" unicode="&#x115;" horiz-adv-x="557" 
d="M292 -12c-146 0 -253 101 -253 254c0 140 102 253 245 253c145 0 237 -110 237 -262v-26h-372c8 -72 62 -133 153 -133c48 0 103 19 138 54l48 -69c-49 -46 -120 -71 -196 -71zM420 282c-3 57 -42 127 -137 127c-89 0 -131 -69 -135 -127h272zM461 647
c-40 -54 -103 -88 -175 -88c-71 0 -135 34 -176 88l49 41c28 -40 73 -67 127 -67s98 25 128 67z" />
    <glyph glyph-name="Edotaccent" unicode="&#x116;" horiz-adv-x="577" 
d="M528 0h-457v667h457v-103h-340v-172h333v-103h-333v-186h340v-103zM303 722c-32 0 -59 26 -59 59c0 32 27 59 59 59s59 -27 59 -59c0 -33 -27 -59 -59 -59z" />
    <glyph glyph-name="edotaccent" unicode="&#x117;" horiz-adv-x="557" 
d="M292 -12c-146 0 -253 101 -253 254c0 140 102 253 245 253c145 0 237 -110 237 -262v-26h-372c8 -72 62 -133 153 -133c48 0 103 19 138 54l48 -69c-49 -46 -120 -71 -196 -71zM420 282c-3 57 -42 127 -137 127c-89 0 -131 -69 -135 -127h272zM285 561
c-32 0 -59 26 -59 59c0 32 27 59 59 59s59 -27 59 -59c0 -33 -27 -59 -59 -59z" />
    <glyph glyph-name="Eogonek" unicode="&#x118;" horiz-adv-x="577" 
d="M541 -101l46 -27c-17 -32 -45 -58 -92 -58c-50 0 -96 26 -96 89c0 37 18 71 49 97h-377v667h457v-103h-340v-172h333v-103h-333v-186h340v-103c-49 -24 -74 -55 -74 -93c0 -32 18 -46 41 -46c24 0 38 15 46 38z" />
    <glyph glyph-name="eogonek" unicode="&#x119;" horiz-adv-x="557" 
d="M393 -101l46 -27c-17 -32 -45 -58 -92 -58c-50 0 -96 26 -96 89c0 32 13 61 36 85c-143 2 -248 102 -248 254c0 140 102 253 245 253c145 0 237 -110 237 -262v-26h-372c8 -72 62 -133 153 -133c48 0 103 19 138 54l48 -69c-30 -28 -68 -48 -110 -59
c-48 -24 -72 -55 -72 -93c0 -32 18 -46 41 -46c24 0 38 15 46 38zM420 282c-3 57 -42 127 -137 127c-89 0 -131 -69 -135 -127h272z" />
    <glyph glyph-name="Ecaron" unicode="&#x11a;" horiz-adv-x="577" 
d="M528 0h-457v667h457v-103h-340v-172h333v-103h-333v-186h340v-103zM350 728h-96l-96 144h67l77 -96l75 96h66z" />
    <glyph glyph-name="ecaron" unicode="&#x11b;" horiz-adv-x="557" 
d="M292 -12c-146 0 -253 101 -253 254c0 140 102 253 245 253c145 0 237 -110 237 -262v-26h-372c8 -72 62 -133 153 -133c48 0 103 19 138 54l48 -69c-49 -46 -120 -71 -196 -71zM420 282c-3 57 -42 127 -137 127c-89 0 -131 -69 -135 -127h272zM333 556h-96l-96 144h67
l77 -96l75 96h66z" />
    <glyph glyph-name="Gcircumflex" unicode="&#x11c;" horiz-adv-x="717" 
d="M392 -13c-194 0 -350 137 -350 346c0 210 156 345 350 345c130 0 215 -62 268 -138l-95 -55c-36 50 -99 89 -173 89c-132 0 -230 -100 -230 -241c0 -139 98 -241 230 -241c68 0 128 31 158 60v103h-200v103h316v-249c-65 -73 -159 -122 -274 -122zM537 728h-66l-78 97
l-74 -97h-67l93 144h96z" />
    <glyph glyph-name="gcircumflex" unicode="&#x11d;" horiz-adv-x="581" 
d="M265 -196c-82 0 -143 18 -203 72l49 76c40 -45 90 -62 154 -62c69 0 143 32 143 135v55c-37 -49 -92 -81 -155 -81c-123 0 -214 89 -214 248c0 157 89 248 214 248c61 0 116 -27 155 -79v67h105v-458c0 -174 -130 -221 -248 -221zM284 93c49 0 100 29 124 64v181
c-24 35 -75 64 -124 64c-84 0 -137 -62 -137 -155s53 -154 137 -154zM438 548h-66l-78 97l-74 -97h-67l93 144h96z" />
    <glyph glyph-name="Gbreve" unicode="&#x11e;" horiz-adv-x="717" 
d="M392 -13c-194 0 -350 137 -350 346c0 210 156 345 350 345c130 0 215 -62 268 -138l-95 -55c-36 50 -99 89 -173 89c-132 0 -230 -100 -230 -241c0 -139 98 -241 230 -241c68 0 128 31 158 60v103h-200v103h316v-249c-65 -73 -159 -122 -274 -122zM569 806
c-40 -54 -103 -88 -175 -88c-71 0 -135 34 -176 88l49 41c28 -40 73 -67 127 -67s98 25 128 67z" />
    <glyph glyph-name="gbreve" unicode="&#x11f;" horiz-adv-x="581" 
d="M265 -196c-82 0 -143 18 -203 72l49 76c40 -45 90 -62 154 -62c69 0 143 32 143 135v55c-37 -49 -92 -81 -155 -81c-123 0 -214 89 -214 248c0 157 89 248 214 248c61 0 116 -27 155 -79v67h105v-458c0 -174 -130 -221 -248 -221zM284 93c49 0 100 29 124 64v181
c-24 35 -75 64 -124 64c-84 0 -137 -62 -137 -155s53 -154 137 -154zM464 647c-40 -54 -103 -88 -175 -88c-71 0 -135 34 -176 88l49 41c28 -40 73 -67 127 -67s98 25 128 67z" />
    <glyph glyph-name="Gdotaccent" unicode="&#x120;" horiz-adv-x="717" 
d="M392 -13c-194 0 -350 137 -350 346c0 210 156 345 350 345c130 0 215 -62 268 -138l-95 -55c-36 50 -99 89 -173 89c-132 0 -230 -100 -230 -241c0 -139 98 -241 230 -241c68 0 128 31 158 60v103h-200v103h316v-249c-65 -73 -159 -122 -274 -122zM393 722
c-32 0 -59 26 -59 59c0 32 27 59 59 59s59 -27 59 -59c0 -33 -27 -59 -59 -59z" />
    <glyph glyph-name="gdotaccent" unicode="&#x121;" horiz-adv-x="581" 
d="M265 -196c-82 0 -143 18 -203 72l49 76c40 -45 90 -62 154 -62c69 0 143 32 143 135v55c-37 -49 -92 -81 -155 -81c-123 0 -214 89 -214 248c0 157 89 248 214 248c61 0 116 -27 155 -79v67h105v-458c0 -174 -130 -221 -248 -221zM284 93c49 0 100 29 124 64v181
c-24 35 -75 64 -124 64c-84 0 -137 -62 -137 -155s53 -154 137 -154zM294 561c-32 0 -59 26 -59 59c0 32 27 59 59 59s59 -27 59 -59c0 -33 -27 -59 -59 -59z" />
    <glyph glyph-name="Gcommaaccent" unicode="&#x122;" horiz-adv-x="717" 
d="M392 -13c-194 0 -350 137 -350 346c0 210 156 345 350 345c130 0 215 -62 268 -138l-95 -55c-36 50 -99 89 -173 89c-132 0 -230 -100 -230 -241c0 -139 98 -241 230 -241c68 0 128 31 158 60v103h-200v103h316v-249c-65 -73 -159 -122 -274 -122zM456 -138
c0 -58 -33 -111 -78 -143l-38 31c28 17 56 53 60 82c-1 -1 -8 -2 -13 -2c-28 0 -49 21 -49 51c0 31 25 56 55 56c33 0 63 -27 63 -75z" />
    <glyph glyph-name="gcommaaccent" unicode="&#x123;" horiz-adv-x="581" 
d="M227 626c0 62 30 118 75 150l40 -32c-26 -15 -57 -50 -60 -78c1 0 3 1 5 1c27 0 54 -23 54 -54c0 -29 -24 -56 -56 -56c-25 0 -58 19 -58 69zM265 -196c-82 0 -143 18 -203 72l49 76c40 -45 90 -62 154 -62c69 0 143 32 143 135v55c-37 -49 -92 -81 -155 -81
c-123 0 -214 89 -214 248c0 157 89 248 214 248c61 0 116 -27 155 -79v67h105v-458c0 -174 -130 -221 -248 -221zM284 93c49 0 100 29 124 64v181c-24 35 -75 64 -124 64c-84 0 -137 -62 -137 -155s53 -154 137 -154z" />
    <glyph glyph-name="Hcircumflex" unicode="&#x124;" horiz-adv-x="723" 
d="M652 0h-117v292h-347v-292h-117v667h117v-272h347v272h117v-667zM503 728h-66l-78 97l-74 -97h-67l93 144h96z" />
    <glyph glyph-name="hcircumflex" unicode="&#x125;" horiz-adv-x="568" 
d="M500 0h-105v304c0 76 -38 98 -97 98c-54 0 -100 -32 -124 -64v-338h-105v667h105v-249c32 38 94 77 170 77c104 0 156 -54 156 -153v-342zM265 728h-66l-78 97l-74 -97h-67l93 144h96z" />
    <glyph glyph-name="Hbar" unicode="&#x126;" horiz-adv-x="741" 
d="M662 0h-117v292h-347v-292h-117v501h-71v62h71v104h117v-104h347v104h117v-104h70v-62h-70v-501zM198 395h347v106h-347v-106z" />
    <glyph glyph-name="hbar" unicode="&#x127;" horiz-adv-x="572" 
d="M328 531h-150v-113c32 38 94 77 170 77c104 0 156 -54 156 -153v-342h-105v304c0 76 -38 98 -97 98c-54 0 -100 -32 -124 -64v-338h-105v531h-63v62h63v74h105v-74h150v-62z" />
    <glyph glyph-name="Itilde" unicode="&#x128;" horiz-adv-x="259" 
d="M188 0h-117v667h117v-667zM187 726c-69 0 -77 78 -119 78c-23 0 -41 -22 -41 -72h-58c0 82 36 134 103 134c70 0 77 -78 119 -78c23 0 42 22 42 72h57c0 -82 -36 -134 -103 -134z" />
    <glyph glyph-name="itilde" unicode="&#x129;" horiz-adv-x="241" 
d="M173 0h-105v483h105v-483zM178 539c-69 0 -77 78 -119 78c-23 0 -41 -22 -41 -72h-58c0 82 36 134 103 134c70 0 77 -78 119 -78c23 0 42 22 42 72h57c0 -82 -36 -134 -103 -134z" />
    <glyph glyph-name="Imacron" unicode="&#x12a;" horiz-adv-x="259" 
d="M188 0h-117v667h117v-667zM311 748h-363v62h363v-62z" />
    <glyph glyph-name="imacron" unicode="&#x12b;" horiz-adv-x="241" 
d="M173 0h-105v483h105v-483zM302 576h-363v62h363v-62z" />
    <glyph glyph-name="Ibreve" unicode="&#x12c;" horiz-adv-x="259" 
d="M188 0h-117v667h117v-667zM307 806c-40 -54 -103 -88 -175 -88c-71 0 -135 34 -176 88l49 41c28 -40 73 -67 127 -67s98 25 128 67z" />
    <glyph glyph-name="ibreve" unicode="&#x12d;" horiz-adv-x="241" 
d="M173 0h-105v483h105v-483zM297 647c-40 -54 -103 -88 -175 -88c-71 0 -135 34 -176 88l49 41c28 -40 73 -67 127 -67s98 25 128 67z" />
    <glyph glyph-name="Iogonek" unicode="&#x12e;" horiz-adv-x="259" 
d="M201 -101l46 -27c-17 -32 -45 -58 -92 -58c-50 0 -96 26 -96 89c0 37 18 71 49 97h-37v667h117v-667c-49 -24 -74 -55 -74 -93c0 -32 18 -46 41 -46c24 0 38 15 46 38z" />
    <glyph glyph-name="iogonek" unicode="&#x12f;" horiz-adv-x="241" 
d="M186 -101l46 -27c-17 -32 -45 -58 -92 -58c-50 0 -96 26 -96 89c0 37 18 71 49 97h-25v483h105v-483c-49 -24 -74 -55 -74 -93c0 -32 18 -46 41 -46c24 0 38 15 46 38zM121 542c-36 0 -65 29 -65 65s29 65 65 65s65 -29 65 -65s-29 -65 -65 -65z" />
    <glyph glyph-name="Idotaccent" unicode="&#x130;" horiz-adv-x="259" 
d="M188 0h-117v667h117v-667zM131 722c-32 0 -59 26 -59 59c0 32 27 59 59 59s59 -27 59 -59c0 -33 -27 -59 -59 -59z" />
    <glyph glyph-name="IJ" unicode="&#x132;" horiz-adv-x="741" 
d="M188 0h-117v667h117v-667zM445 -12c-69 0 -130 21 -178 71l55 89c26 -30 63 -56 114 -56c71 0 117 49 117 121v454h117v-455c0 -152 -96 -224 -225 -224z" />
    <glyph glyph-name="ij" unicode="&#x133;" horiz-adv-x="482" 
d="M121 542c-36 0 -65 29 -65 65s29 65 65 65s65 -29 65 -65s-29 -65 -65 -65zM173 0h-105v483h105v-483zM362 542c-36 0 -65 29 -65 65s29 65 65 65s65 -29 65 -65s-29 -65 -65 -65zM254 -196c-56 0 -81 11 -114 35l31 78c18 -16 37 -27 67 -27c42 0 71 25 71 82v511h105
v-511c0 -103 -53 -168 -160 -168z" />
    <glyph glyph-name="Jcircumflex" unicode="&#x134;" horiz-adv-x="482" 
d="M186 -12c-69 0 -130 21 -178 71l55 89c26 -30 63 -56 114 -56c71 0 117 49 117 121v454h117v-455c0 -152 -96 -224 -225 -224zM495 728h-66l-78 97l-74 -97h-67l93 144h96z" />
    <glyph glyph-name="jcircumflex" unicode="&#x135;" horiz-adv-x="241" 
d="M13 -196c-56 0 -81 11 -114 35l31 85c18 -16 37 -27 67 -27c42 0 71 25 71 75v511h105v-511c0 -103 -53 -168 -160 -168zM265 556h-66l-78 97l-74 -97h-67l93 144h96z" />
    <glyph glyph-name="Kcommaaccent" unicode="&#x136;" horiz-adv-x="630" 
d="M615 0h-145l-223 282l-59 -69v-213h-117v667h117v-317l261 317h145l-271 -314zM380 -138c0 -58 -33 -111 -78 -143l-38 31c28 17 56 53 60 82c-1 -1 -8 -2 -13 -2c-28 0 -49 21 -49 51c0 31 25 56 55 56c33 0 63 -27 63 -75z" />
    <glyph glyph-name="kcommaaccent" unicode="&#x137;" horiz-adv-x="527" 
d="M520 0h-132l-147 200l-68 -70v-130h-105v667h105v-417l213 233h130l-200 -219zM329 -138c0 -58 -33 -111 -78 -143l-38 31c28 17 56 53 60 82c-1 -1 -8 -2 -13 -2c-28 0 -49 21 -49 51c0 31 25 56 55 56c33 0 63 -27 63 -75z" />
    <glyph glyph-name="kgreenlandic" unicode="&#x138;" horiz-adv-x="527" 
d="M520 0h-132l-147 200l-68 -70v-130h-105v483h105v-233l213 233h130l-200 -219z" />
    <glyph glyph-name="Lacute" unicode="&#x139;" horiz-adv-x="506" 
d="M474 0h-411v667h117v-564h294v-103zM433 872l-165 -144h-75l140 144h100z" />
    <glyph glyph-name="lacute" unicode="&#x13a;" horiz-adv-x="241" 
d="M173 0h-105v667h105v-667zM286 872l-165 -144h-75l140 144h100z" />
    <glyph glyph-name="Lcommaaccent" unicode="&#x13b;" horiz-adv-x="506" 
d="M474 0h-411v667h117v-564h294v-103zM316 -138c0 -58 -33 -111 -78 -143l-38 31c28 17 56 53 60 82c-1 -1 -8 -2 -13 -2c-28 0 -49 21 -49 51c0 31 25 56 55 56c33 0 63 -27 63 -75z" />
    <glyph glyph-name="lcommaaccent" unicode="&#x13c;" horiz-adv-x="241" 
d="M173 0h-105v667h105v-667zM186 -138c0 -58 -33 -111 -78 -143l-38 31c28 17 56 53 60 82c-1 -1 -8 -2 -13 -2c-28 0 -49 21 -49 51c0 31 25 56 55 56c33 0 63 -27 63 -75z" />
    <glyph glyph-name="Lcaron" unicode="&#x13d;" horiz-adv-x="506" 
d="M474 0h-411v667h117v-564h294v-103zM384 605c0 -58 -33 -111 -78 -143l-38 31c28 17 56 53 60 82c-1 -1 -8 -2 -13 -2c-28 0 -49 21 -49 51c0 31 25 56 55 56c33 0 63 -27 63 -75z" />
    <glyph glyph-name="lcaron" unicode="&#x13e;" horiz-adv-x="328" 
d="M173 0h-105v667h105v-667zM347 605c0 -58 -33 -111 -78 -143l-38 31c28 17 56 53 60 82c-1 -1 -8 -2 -13 -2c-28 0 -49 21 -49 51c0 31 25 56 55 56c33 0 63 -27 63 -75z" />
    <glyph glyph-name="Ldot" unicode="&#x13f;" horiz-adv-x="537" 
d="M474 0h-411v667h117v-564h294v-103zM463 343c0 -38 -31 -70 -69 -70s-70 32 -70 70c0 37 32 69 70 69s69 -32 69 -69z" />
    <glyph glyph-name="ldot" unicode="&#x140;" horiz-adv-x="351" 
d="M173 0h-105v667h105v-667zM366 245c0 -38 -31 -70 -69 -70s-70 32 -70 70c0 37 32 69 70 69s69 -32 69 -69z" />
    <glyph glyph-name="Nacute" unicode="&#x143;" horiz-adv-x="720" 
d="M649 0h-113l-348 477v-477h-117v667h120l341 -462v462h117v-667zM525 872l-165 -144h-75l140 144h100z" />
    <glyph glyph-name="nacute" unicode="&#x144;" horiz-adv-x="568" 
d="M505 0h-105v302c0 76 -39 100 -98 100c-53 0 -99 -32 -124 -64v-338h-105v483h105v-65c32 38 95 77 171 77c104 0 156 -56 156 -155v-340zM449 700l-165 -144h-75l140 144h100z" />
    <glyph glyph-name="Ncommaaccent" unicode="&#x145;" horiz-adv-x="720" 
d="M649 0h-113l-348 477v-477h-117v667h120l341 -462v462h117v-667zM425 -138c0 -58 -33 -111 -78 -143l-38 31c28 17 56 53 60 82c-1 -1 -8 -2 -13 -2c-28 0 -49 21 -49 51c0 31 25 56 55 56c33 0 63 -27 63 -75z" />
    <glyph glyph-name="ncommaaccent" unicode="&#x146;" horiz-adv-x="568" 
d="M505 0h-105v302c0 76 -39 100 -98 100c-53 0 -99 -32 -124 -64v-338h-105v483h105v-65c32 38 95 77 171 77c104 0 156 -56 156 -155v-340zM349 -138c0 -58 -33 -111 -78 -143l-38 31c28 17 56 53 60 82c-1 -1 -8 -2 -13 -2c-28 0 -49 21 -49 51c0 31 25 56 55 56
c33 0 63 -27 63 -75z" />
    <glyph glyph-name="Ncaron" unicode="&#x147;" horiz-adv-x="720" 
d="M649 0h-113l-348 477v-477h-117v667h120l341 -462v462h117v-667zM409 728h-96l-96 144h67l77 -96l75 96h66z" />
    <glyph glyph-name="ncaron" unicode="&#x148;" horiz-adv-x="568" 
d="M505 0h-105v302c0 76 -39 100 -98 100c-53 0 -99 -32 -124 -64v-338h-105v483h105v-65c32 38 95 77 171 77c104 0 156 -56 156 -155v-340zM333 556h-96l-96 144h67l77 -96l75 96h66z" />
    <glyph glyph-name="napostrophe" unicode="&#x149;" horiz-adv-x="568" 
d="M505 0h-105v302c0 76 -39 100 -98 100c-53 0 -99 -32 -124 -64v-338h-105v483h105v-65c32 38 95 77 171 77c104 0 156 -56 156 -155v-340zM169 680c0 -58 -33 -111 -78 -143l-38 31c28 17 56 53 60 82c-1 -1 -8 -2 -13 -2c-28 0 -49 21 -49 51c0 31 25 56 55 56
c33 0 63 -27 63 -75z" />
    <glyph glyph-name="Eng" unicode="&#x14a;" horiz-adv-x="720" 
d="M424 -196c-69 0 -130 20 -177 70l54 89c27 -29 63 -55 114 -55c65 0 107 39 115 99l-342 470v-477h-117v667h120l341 -462v462h117v-641c0 -152 -96 -222 -225 -222z" />
    <glyph glyph-name="eng" unicode="&#x14b;" horiz-adv-x="568" 
d="M340 -196c-56 0 -81 11 -114 35l31 85c18 -16 37 -27 67 -27c41 0 71 25 71 75v330c0 76 -39 100 -98 100c-53 0 -99 -32 -124 -64v-338h-105v483h105v-65c32 38 95 77 171 77c104 0 156 -56 156 -155v-368c0 -103 -54 -168 -160 -168z" />
    <glyph glyph-name="Omacron" unicode="&#x14c;" horiz-adv-x="765" 
d="M383 -12c-200 0 -341 146 -341 345s141 345 341 345c199 0 341 -146 341 -345s-142 -345 -341 -345zM383 92c134 0 221 104 221 241c0 138 -87 241 -221 241c-135 0 -221 -103 -221 -241c0 -137 86 -241 221 -241zM564 748h-363v62h363v-62z" />
    <glyph glyph-name="omacron" unicode="&#x14d;" horiz-adv-x="574" 
d="M287 -12c-154 0 -248 116 -248 254c0 139 94 253 248 253s248 -114 248 -253c0 -138 -94 -254 -248 -254zM287 81c90 0 139 75 139 161c0 85 -49 160 -139 160c-89 0 -139 -75 -139 -160c0 -86 50 -161 139 -161zM468 576h-363v62h363v-62z" />
    <glyph glyph-name="Obreve" unicode="&#x14e;" horiz-adv-x="765" 
d="M383 -12c-200 0 -341 146 -341 345s141 345 341 345c199 0 341 -146 341 -345s-142 -345 -341 -345zM383 92c134 0 221 104 221 241c0 138 -87 241 -221 241c-135 0 -221 -103 -221 -241c0 -137 86 -241 221 -241zM557 806c-40 -54 -103 -88 -175 -88
c-71 0 -135 34 -176 88l49 41c28 -40 73 -67 127 -67s98 25 128 67z" />
    <glyph glyph-name="obreve" unicode="&#x14f;" horiz-adv-x="574" 
d="M287 -12c-154 0 -248 116 -248 254c0 139 94 253 248 253s248 -114 248 -253c0 -138 -94 -254 -248 -254zM287 81c90 0 139 75 139 161c0 85 -49 160 -139 160c-89 0 -139 -75 -139 -160c0 -86 50 -161 139 -161zM462 647c-40 -54 -103 -88 -175 -88
c-71 0 -135 34 -176 88l49 41c28 -40 73 -67 127 -67s98 25 128 67z" />
    <glyph glyph-name="Ohungarumlaut" unicode="&#x150;" horiz-adv-x="765" 
d="M383 -12c-200 0 -341 146 -341 345s141 345 341 345c199 0 341 -146 341 -345s-142 -345 -341 -345zM383 92c134 0 221 104 221 241c0 138 -87 241 -221 241c-135 0 -221 -103 -221 -241c0 -137 86 -241 221 -241zM443 872l-115 -144h-63l90 144h88zM589 872l-115 -144
h-63l90 144h88z" />
    <glyph glyph-name="ohungarumlaut" unicode="&#x151;" horiz-adv-x="574" 
d="M287 -12c-154 0 -248 116 -248 254c0 139 94 253 248 253s248 -114 248 -253c0 -138 -94 -254 -248 -254zM287 81c90 0 139 75 139 161c0 85 -49 160 -139 160c-89 0 -139 -75 -139 -160c0 -86 50 -161 139 -161zM348 700l-115 -144h-63l90 144h88zM494 700l-115 -144
h-63l90 144h88z" />
    <glyph glyph-name="Racute" unicode="&#x154;" horiz-adv-x="629" 
d="M588 0h-136l-147 249h-117v-249h-117v667h293c132 0 219 -85 219 -209c0 -118 -78 -183 -159 -196zM349 352c66 0 114 42 114 107c0 64 -48 105 -114 105h-161v-212h161zM481 872l-165 -144h-75l140 144h100z" />
    <glyph glyph-name="racute" unicode="&#x155;" horiz-adv-x="347" 
d="M173 0h-105v483h105v-70c37 46 95 82 157 82v-104c-9 2 -19 3 -32 3c-45 0 -104 -30 -125 -65v-329zM363 700l-165 -144h-75l140 144h100z" />
    <glyph glyph-name="Rcommaaccent" unicode="&#x156;" horiz-adv-x="629" 
d="M588 0h-136l-147 249h-117v-249h-117v667h293c132 0 219 -85 219 -209c0 -118 -78 -183 -159 -196zM349 352c66 0 114 42 114 107c0 64 -48 105 -114 105h-161v-212h161zM381 -138c0 -58 -33 -111 -78 -143l-38 31c28 17 56 53 60 82c-1 -1 -8 -2 -13 -2
c-28 0 -49 21 -49 51c0 31 25 56 55 56c33 0 63 -27 63 -75z" />
    <glyph glyph-name="rcommaaccent" unicode="&#x157;" horiz-adv-x="347" 
d="M173 0h-105v483h105v-70c37 46 95 82 157 82v-104c-9 2 -19 3 -32 3c-45 0 -104 -30 -125 -65v-329zM239 -138c0 -58 -33 -111 -78 -143l-38 31c28 17 56 53 60 82c-1 -1 -8 -2 -13 -2c-28 0 -49 21 -49 51c0 31 25 56 55 56c33 0 63 -27 63 -75z" />
    <glyph glyph-name="Rcaron" unicode="&#x158;" horiz-adv-x="629" 
d="M588 0h-136l-147 249h-117v-249h-117v667h293c132 0 219 -85 219 -209c0 -118 -78 -183 -159 -196zM349 352c66 0 114 42 114 107c0 64 -48 105 -114 105h-161v-212h161zM366 728h-96l-96 144h67l77 -96l75 96h66z" />
    <glyph glyph-name="rcaron" unicode="&#x159;" horiz-adv-x="347" 
d="M173 0h-105v483h105v-70c37 46 95 82 157 82v-104c-9 2 -19 3 -32 3c-45 0 -104 -30 -125 -65v-329zM247 556h-96l-96 144h67l77 -96l75 96h66z" />
    <glyph glyph-name="Sacute" unicode="&#x15a;" horiz-adv-x="594" 
d="M300 -12c-123 0 -212 44 -272 106l66 91c45 -49 118 -93 211 -93c96 0 133 47 133 92c0 140 -388 53 -388 298c0 111 96 196 243 196c103 0 188 -34 249 -94l-66 -87c-53 53 -124 77 -194 77c-68 0 -112 -34 -112 -83c0 -125 388 -48 388 -296c0 -111 -79 -207 -258 -207
zM460 872l-165 -144h-75l140 144h100z" />
    <glyph glyph-name="sacute" unicode="&#x15b;" horiz-adv-x="472" 
d="M234 -12c-83 0 -157 27 -207 76l48 75c34 -35 101 -67 163 -67c63 0 96 26 96 64c0 95 -292 27 -292 213c0 79 68 146 190 146c82 0 144 -29 187 -67l-44 -74c-29 32 -82 58 -143 58c-55 0 -89 -26 -89 -60c0 -85 292 -21 292 -213c0 -86 -71 -151 -201 -151zM403 700
l-165 -144h-75l140 144h100z" />
    <glyph glyph-name="Scircumflex" unicode="&#x15c;" horiz-adv-x="594" 
d="M432 728h-66l-78 97l-74 -97h-67l93 144h96zM300 -12c-123 0 -212 44 -272 106l66 91c45 -49 118 -93 211 -93c96 0 133 47 133 92c0 140 -388 53 -388 298c0 111 96 196 243 196c103 0 188 -34 249 -94l-66 -87c-53 53 -124 77 -194 77c-68 0 -112 -34 -112 -83
c0 -125 388 -48 388 -296c0 -111 -79 -207 -258 -207z" />
    <glyph glyph-name="scircumflex" unicode="&#x15d;" horiz-adv-x="472" 
d="M234 -12c-83 0 -157 27 -207 76l48 75c34 -35 101 -67 163 -67c63 0 96 26 96 64c0 95 -292 27 -292 213c0 79 68 146 190 146c82 0 144 -29 187 -67l-44 -74c-29 32 -82 58 -143 58c-55 0 -89 -26 -89 -60c0 -85 292 -21 292 -213c0 -86 -71 -151 -201 -151zM376 556
h-66l-78 97l-74 -97h-67l93 144h96z" />
    <glyph glyph-name="Scedilla" unicode="&#x15e;" horiz-adv-x="594" 
d="M290 -194c-45 0 -85 15 -106 31l23 46c25 -20 53 -29 81 -29c29 0 55 12 55 36c0 19 -11 30 -32 30c-14 0 -27 -6 -35 -15l-40 23l22 62c-101 9 -177 49 -230 104l66 91c45 -49 118 -93 211 -93c96 0 133 47 133 92c0 140 -388 53 -388 298c0 111 96 196 243 196
c103 0 188 -34 249 -94l-66 -87c-53 53 -124 77 -194 77c-68 0 -112 -34 -112 -83c0 -125 388 -48 388 -296c0 -109 -76 -202 -246 -207l-16 -41c10 7 23 11 36 11c37 0 66 -28 66 -69c0 -51 -48 -83 -108 -83z" />
    <glyph glyph-name="scedilla" unicode="&#x15f;" horiz-adv-x="472" 
d="M233 -194c-45 0 -85 15 -106 31l23 46c25 -20 53 -29 81 -29c29 0 55 12 55 36c0 19 -11 30 -32 30c-14 0 -27 -6 -35 -15l-40 23l22 62c-69 6 -131 31 -174 74l48 75c34 -35 101 -67 163 -67c63 0 96 26 96 64c0 95 -292 27 -292 213c0 79 68 146 190 146
c82 0 144 -29 187 -67l-44 -74c-29 32 -82 58 -143 58c-55 0 -89 -26 -89 -60c0 -85 292 -21 292 -213c0 -81 -64 -143 -180 -150l-16 -42c10 7 23 11 36 11c37 0 66 -28 66 -69c0 -51 -48 -83 -108 -83z" />
    <glyph glyph-name="Tcommaaccent" unicode="&#x162;" horiz-adv-x="577" 
d="M347 0h-117v564h-202v103h521v-103h-202v-564zM354 -138c0 -58 -33 -111 -78 -143l-38 31c28 17 56 53 60 82c-1 -1 -8 -2 -13 -2c-28 0 -49 21 -49 51c0 31 25 56 55 56c33 0 63 -27 63 -75z" />
    <glyph glyph-name="Tcommaaccent" unicode="&#x21a;" horiz-adv-x="577" 
d="M347 0h-117v564h-202v103h521v-103h-202v-564zM354 -138c0 -58 -33 -111 -78 -143l-38 31c28 17 56 53 60 82c-1 -1 -8 -2 -13 -2c-28 0 -49 21 -49 51c0 31 25 56 55 56c33 0 63 -27 63 -75z" />
    <glyph glyph-name="tcommaaccent" unicode="&#x163;" horiz-adv-x="319" 
d="M214 -12c-82 0 -124 44 -124 125v279h-80v91h80v132h105v-132h98v-91h-98v-253c0 -33 16 -58 46 -58c20 0 38 9 46 18l25 -80c-19 -17 -50 -31 -98 -31zM225 -138c0 -58 -33 -111 -78 -143l-38 31c28 17 56 53 60 82c-1 -1 -8 -2 -13 -2c-28 0 -49 21 -49 51
c0 31 25 56 55 56c33 0 63 -27 63 -75z" />
    <glyph glyph-name="tcommaaccent" unicode="&#x21b;" horiz-adv-x="319" 
d="M214 -12c-82 0 -124 44 -124 125v279h-80v91h80v132h105v-132h98v-91h-98v-253c0 -33 16 -58 46 -58c20 0 38 9 46 18l25 -80c-19 -17 -50 -31 -98 -31zM225 -138c0 -58 -33 -111 -78 -143l-38 31c28 17 56 53 60 82c-1 -1 -8 -2 -13 -2c-28 0 -49 21 -49 51
c0 31 25 56 55 56c33 0 63 -27 63 -75z" />
    <glyph glyph-name="Tcaron" unicode="&#x164;" horiz-adv-x="577" 
d="M347 0h-117v564h-202v103h521v-103h-202v-564zM338 728h-96l-96 144h67l77 -96l75 96h66z" />
    <glyph glyph-name="tcaron" unicode="&#x165;" horiz-adv-x="352" 
d="M214 -12c-82 0 -124 44 -124 125v279h-80v91h80v132h105v-132h98v-91h-98v-253c0 -33 16 -58 46 -58c20 0 38 9 46 18l25 -80c-19 -17 -50 -31 -98 -31zM369 680c0 -58 -33 -111 -78 -143l-38 31c28 17 56 53 60 82c-1 -1 -8 -2 -13 -2c-28 0 -49 21 -49 51
c0 31 25 56 55 56c33 0 63 -27 63 -75z" />
    <glyph glyph-name="Tbar" unicode="&#x166;" horiz-adv-x="577" 
d="M347 0h-117v276h-140v62h140v226h-202v103h521v-103h-202v-226h142v-62h-142v-276z" />
    <glyph glyph-name="tbar" unicode="&#x167;" horiz-adv-x="319" 
d="M264 216h-69v-77c0 -33 16 -58 46 -58c20 0 38 9 46 18l25 -80c-19 -17 -50 -31 -98 -31c-82 0 -124 44 -124 125v103h-80v62h80v114h-80v91h80v132h105v-132h98v-91h-98v-114h69v-62z" />
    <glyph glyph-name="Utilde" unicode="&#x168;" horiz-adv-x="720" 
d="M360 -12c-193 0 -289 111 -289 276v403h119v-400c0 -106 59 -175 170 -175s170 69 170 175v400h119v-403c0 -165 -95 -276 -289 -276zM420 726c-69 0 -77 78 -119 78c-23 0 -41 -22 -41 -72h-58c0 82 36 134 103 134c70 0 77 -78 119 -78c23 0 42 22 42 72h57
c0 -82 -36 -134 -103 -134z" />
    <glyph glyph-name="utilde" unicode="&#x169;" horiz-adv-x="567" 
d="M499 0h-105v64c-34 -38 -94 -76 -170 -76c-104 0 -156 55 -156 153v342h105v-303c0 -75 38 -99 98 -99c53 0 99 31 123 63v339h105v-483zM341 554c-69 0 -77 78 -119 78c-23 0 -41 -22 -41 -72h-58c0 82 36 134 103 134c70 0 77 -78 119 -78c23 0 42 22 42 72h57
c0 -82 -36 -134 -103 -134z" />
    <glyph glyph-name="Umacron" unicode="&#x16a;" horiz-adv-x="720" 
d="M360 -12c-193 0 -289 111 -289 276v403h119v-400c0 -106 59 -175 170 -175s170 69 170 175v400h119v-403c0 -165 -95 -276 -289 -276zM543 748h-363v62h363v-62z" />
    <glyph glyph-name="umacron" unicode="&#x16b;" horiz-adv-x="567" 
d="M499 0h-105v64c-34 -38 -94 -76 -170 -76c-104 0 -156 55 -156 153v342h105v-303c0 -75 38 -99 98 -99c53 0 99 31 123 63v339h105v-483zM465 576h-363v62h363v-62z" />
    <glyph glyph-name="Ubreve" unicode="&#x16c;" horiz-adv-x="720" 
d="M360 -12c-193 0 -289 111 -289 276v403h119v-400c0 -106 59 -175 170 -175s170 69 170 175v400h119v-403c0 -165 -95 -276 -289 -276zM538 806c-40 -54 -103 -88 -175 -88c-71 0 -135 34 -176 88l49 41c28 -40 73 -67 127 -67s98 25 128 67z" />
    <glyph glyph-name="ubreve" unicode="&#x16d;" horiz-adv-x="567" 
d="M499 0h-105v64c-34 -38 -94 -76 -170 -76c-104 0 -156 55 -156 153v342h105v-303c0 -75 38 -99 98 -99c53 0 99 31 123 63v339h105v-483zM461 647c-40 -54 -103 -88 -175 -88c-71 0 -135 34 -176 88l49 41c28 -40 73 -67 127 -67s98 25 128 67z" />
    <glyph glyph-name="Uring" unicode="&#x16e;" horiz-adv-x="720" 
d="M360 -12c-193 0 -289 111 -289 276v403h119v-400c0 -106 59 -175 170 -175s170 69 170 175v400h119v-403c0 -165 -95 -276 -289 -276zM362 693c-56 0 -103 46 -103 102s47 103 103 103s101 -47 101 -103s-45 -102 -101 -102zM362 743c28 0 51 24 51 52
c0 29 -23 52 -51 52c-29 0 -52 -23 -52 -52c0 -28 23 -52 52 -52z" />
    <glyph glyph-name="uring" unicode="&#x16f;" horiz-adv-x="567" 
d="M499 0h-105v64c-34 -38 -94 -76 -170 -76c-104 0 -156 55 -156 153v342h105v-303c0 -75 38 -99 98 -99c53 0 99 31 123 63v339h105v-483zM285 547c-56 0 -103 46 -103 102s47 103 103 103s101 -47 101 -103s-45 -102 -101 -102zM285 597c28 0 51 24 51 52
c0 29 -23 52 -51 52c-29 0 -52 -23 -52 -52c0 -28 23 -52 52 -52z" />
    <glyph glyph-name="Uhungarumlaut" unicode="&#x170;" horiz-adv-x="720" 
d="M360 -12c-193 0 -289 111 -289 276v403h119v-400c0 -106 59 -175 170 -175s170 69 170 175v400h119v-403c0 -165 -95 -276 -289 -276zM422 872l-115 -144h-63l90 144h88zM568 872l-115 -144h-63l90 144h88z" />
    <glyph glyph-name="uhungarumlaut" unicode="&#x171;" horiz-adv-x="567" 
d="M499 0h-105v64c-34 -38 -94 -76 -170 -76c-104 0 -156 55 -156 153v342h105v-303c0 -75 38 -99 98 -99c53 0 99 31 123 63v339h105v-483zM344 700l-115 -144h-63l90 144h88zM490 700l-115 -144h-63l90 144h88z" />
    <glyph glyph-name="Uogonek" unicode="&#x172;" horiz-adv-x="720" 
d="M360 -12c-193 0 -289 111 -289 276v403h119v-400c0 -106 59 -175 170 -175s170 69 170 175v400h119v-403c0 -134 -62 -231 -188 -264c-49 -24 -74 -55 -74 -93c0 -32 18 -46 41 -46c24 0 38 15 46 38l46 -27c-17 -32 -45 -58 -92 -58c-50 0 -96 26 -96 89
c0 32 13 61 36 85h-8z" />
    <glyph glyph-name="uogonek" unicode="&#x173;" horiz-adv-x="567" 
d="M512 -101l46 -27c-17 -32 -45 -58 -92 -58c-50 0 -96 26 -96 89c0 37 18 71 49 97h-25v64c-34 -38 -94 -76 -170 -76c-104 0 -156 55 -156 153v342h105v-303c0 -75 38 -99 98 -99c53 0 99 31 123 63v339h105v-483c-49 -24 -74 -55 -74 -93c0 -32 18 -46 41 -46
c24 0 38 15 46 38z" />
    <glyph glyph-name="Wcircumflex" unicode="&#x174;" horiz-adv-x="903" 
d="M706 0h-125l-129 493l-130 -493h-125l-190 667h130l130 -513l138 513h93l138 -513l130 513h131zM595 728h-66l-78 97l-74 -97h-67l93 144h96z" />
    <glyph glyph-name="wcircumflex" unicode="&#x175;" horiz-adv-x="755" 
d="M600 0h-110l-113 354l-112 -354h-110l-150 483h109l102 -351l115 351h93l114 -351l102 351h110zM520 556h-66l-78 97l-74 -97h-67l93 144h96z" />
    <glyph glyph-name="Ycircumflex" unicode="&#x176;" horiz-adv-x="637" 
d="M463 728h-66l-78 97l-74 -97h-67l93 144h96zM378 0h-117v277l-259 390h134l183 -285l183 285h134l-258 -390v-277z" />
    <glyph glyph-name="ycircumflex" unicode="&#x177;" horiz-adv-x="503" 
d="M48 -189l15 94c11 -5 28 -8 40 -8c34 0 56 10 70 42l24 55l-199 489h113l141 -362l141 362h112l-233 -570c-33 -82 -90 -108 -165 -109c-15 0 -45 3 -59 7zM395 556h-66l-78 97l-74 -97h-67l93 144h96z" />
    <glyph glyph-name="Zacute" unicode="&#x179;" horiz-adv-x="589" 
d="M545 0h-500v95l340 469h-340v103h493v-94l-342 -470h349v-103zM459 872l-165 -144h-75l140 144h100z" />
    <glyph glyph-name="zacute" unicode="&#x17a;" horiz-adv-x="476" 
d="M430 0h-383v80l238 312h-238v91h379v-76l-242 -315h246v-92zM403 700l-165 -144h-75l140 144h100z" />
    <glyph glyph-name="Zdotaccent" unicode="&#x17b;" horiz-adv-x="589" 
d="M545 0h-500v95l340 469h-340v103h493v-94l-342 -470h349v-103zM291 722c-32 0 -59 26 -59 59c0 32 27 59 59 59s59 -27 59 -59c0 -33 -27 -59 -59 -59z" />
    <glyph glyph-name="zdotaccent" unicode="&#x17c;" horiz-adv-x="476" 
d="M430 0h-383v80l238 312h-238v91h379v-76l-242 -315h246v-92zM237 561c-32 0 -59 26 -59 59c0 32 27 59 59 59s59 -27 59 -59c0 -33 -27 -59 -59 -59z" />
    <glyph glyph-name="longs" unicode="&#x17f;" horiz-adv-x="309" 
d="M199 0h-105v392h-80v91h80v27c0 105 61 167 152 167c44 0 87 -11 116 -42l-41 -65c-14 13 -32 21 -55 21c-42 0 -67 -27 -67 -81v-510z" />
    <glyph glyph-name="AEacute" unicode="&#x1fc;" horiz-adv-x="960" 
d="M912 0h-457v129h-246l-77 -129h-134l410 667h504v-103h-340v-172h333v-103h-333v-186h340v-103zM455 232v318l-191 -318h191zM675 872l-165 -144h-75l140 144h100z" />
    <glyph glyph-name="aeacute" unicode="&#x1fd;" horiz-adv-x="878" 
d="M842 207h-372c8 -72 62 -131 153 -131c48 0 103 20 138 54l48 -71c-49 -46 -120 -71 -196 -71c-89 0 -158 39 -200 93c-37 -47 -103 -93 -198 -93c-86 0 -175 53 -175 159s80 159 167 159c64 0 120 -20 157 -61v71c0 56 -47 90 -113 90c-54 0 -102 -20 -143 -62l-44 73
c56 54 126 78 203 78c87 0 142 -30 165 -90c34 50 88 90 178 90c140 0 232 -110 232 -262v-26zM469 282h272c-3 57 -42 127 -137 127c-89 0 -131 -68 -135 -127zM376 129c-6 11 -12 35 -12 53c-25 34 -70 52 -115 52c-59 0 -104 -35 -104 -87c0 -53 45 -87 104 -87
c45 0 97 17 127 69zM590 700l-165 -144h-75l140 144h100z" />
    <glyph glyph-name="Oslashacute" unicode="&#x1fe;" horiz-adv-x="765" 
d="M549 872l-165 -144h-75l140 144h100zM383 -12c-68 0 -128 16 -179 46l-25 -34h-87l55 76c-66 62 -105 152 -105 257c0 199 141 345 341 345c63 0 121 -15 170 -42l22 31h87l-51 -71c71 -62 113 -155 113 -263c0 -199 -142 -345 -341 -345zM383 92c134 0 221 104 221 241
c0 68 -22 129 -60 172l-276 -383c32 -19 71 -30 115 -30zM162 333c0 -64 18 -121 52 -164l275 379c-31 17 -66 26 -106 26c-135 0 -221 -103 -221 -241z" />
    <glyph glyph-name="oslashacute" unicode="&#x1ff;" horiz-adv-x="574" 
d="M452 700l-165 -144h-75l140 144h100zM119 0h-68l53 64c-42 46 -65 109 -65 178c0 139 94 253 248 253c54 0 101 -15 139 -39l23 27h69l-51 -61c44 -46 68 -110 68 -180c0 -138 -94 -254 -248 -254c-57 0 -105 15 -143 42zM287 81c90 0 139 75 139 161c0 36 -9 70 -26 98
l-193 -233c22 -16 48 -26 80 -26zM148 242c0 -35 8 -69 24 -96l191 233c-20 14 -46 23 -76 23c-89 0 -139 -75 -139 -160z" />
    <glyph glyph-name="Scommaaccent" unicode="&#x218;" horiz-adv-x="605" 
d="M308 -12c-123 0 -212 44 -272 106l66 91c45 -49 118 -93 211 -93c96 0 133 47 133 92c0 140 -388 53 -388 298c0 111 96 196 243 196c103 0 188 -34 249 -94l-66 -87c-53 53 -124 77 -194 77c-68 0 -112 -34 -112 -83c0 -125 388 -48 388 -296c0 -111 -79 -207 -258 -207
zM366 -138c0 -58 -33 -111 -78 -143l-38 31c28 17 56 53 60 82c-1 -1 -8 -2 -13 -2c-28 0 -49 21 -49 51c0 31 25 56 55 56c33 0 63 -27 63 -75z" />
    <glyph glyph-name="scommaaccent" unicode="&#x219;" horiz-adv-x="477" 
d="M234 -12c-83 0 -157 27 -207 76l48 75c34 -35 101 -67 163 -67c63 0 96 26 96 64c0 95 -292 27 -292 213c0 79 68 146 190 146c82 0 144 -29 187 -67l-44 -74c-29 32 -82 58 -143 58c-55 0 -89 -26 -89 -60c0 -85 292 -21 292 -213c0 -86 -71 -151 -201 -151zM304 -138
c0 -58 -33 -111 -78 -143l-38 31c28 17 56 53 60 82c-1 -1 -8 -2 -13 -2c-28 0 -49 21 -49 51c0 31 25 56 55 56c33 0 63 -27 63 -75z" />
    <glyph glyph-name="hsuperior" unicode="&#x2b0;" horiz-adv-x="406" 
d="M351 326h-77v194c0 49 -25 63 -64 63c-34 0 -63 -20 -78 -39v-218h-77v434h77v-161c21 24 61 49 114 49c71 0 105 -37 105 -104v-218z" />
    <glyph glyph-name="hsuperior" unicode="&#xf637;" horiz-adv-x="406" 
d="M351 326h-77v194c0 49 -25 63 -64 63c-34 0 -63 -20 -78 -39v-218h-77v434h77v-161c21 24 61 49 114 49c71 0 105 -37 105 -104v-218z" />
    <glyph glyph-name="frenchfranc" unicode="&#x20a3;" horiz-adv-x="572" 
d="M198 0h-117v121h-71v62h71v484h457v-103h-340v-172h333v-103h-333v-106h175v-62h-175v-121z" />
    <glyph glyph-name="lira" unicode="&#x20a4;" horiz-adv-x="536" 
d="M22 331v57h49c-14 25 -24 53 -24 87c0 120 115 202 234 202c103 0 180 -40 219 -117l-93 -55c-16 43 -60 76 -113 76c-66 0 -120 -42 -120 -108c0 -35 11 -61 27 -85h182v-57h-142c11 -18 21 -37 26 -60h116v-57h-116c-8 -41 -35 -73 -67 -95c15 6 34 9 50 9
c61 0 86 -37 138 -37c43 0 77 20 90 38l48 -93c-28 -28 -74 -49 -142 -49c-89 0 -114 45 -181 45c-34 0 -76 -17 -116 -39l-40 83c72 33 118 81 118 136v2h-143v57h129c-11 21 -25 40 -40 60h-89z" />
    <glyph glyph-name="uni20A6" unicode="&#x20a6;" horiz-adv-x="739" 
d="M659 0h-113l-172 235h-176v-235h-117v235h-71v62h71v78h-71v62h71v230h120l169 -230h172v230h117v-230h71v-62h-71v-78h71v-62h-71v-235zM198 477v-180h131zM416 375l126 -170v170h-126z" />
    <glyph glyph-name="peseta" unicode="&#x20a7;" horiz-adv-x="662" 
d="M658 426h-69c-13 -99 -89 -176 -214 -176h-177v-250h-117v426h-71v65h71v176h294c126 0 201 -78 214 -176h69v-65zM359 353c54 0 95 28 108 73h-269v-73h161zM198 564v-73h269c-13 45 -54 73 -108 73h-161z" />
    <glyph glyph-name="rupee" unicode="&#x20a8;" horiz-adv-x="1049" 
d="M588 0h-136l-147 249h-117v-249h-117v667h293c132 0 219 -85 219 -209c0 -118 -78 -183 -159 -196zM349 352c66 0 114 42 114 107c0 64 -48 105 -114 105h-161v-212h161zM811 -12c-83 0 -157 27 -207 76l48 75c34 -35 101 -67 163 -67c63 0 96 26 96 64
c0 95 -292 27 -292 213c0 79 68 146 190 146c82 0 144 -29 187 -67l-44 -74c-29 32 -82 58 -143 58c-55 0 -89 -26 -89 -60c0 -85 292 -21 292 -213c0 -86 -71 -151 -201 -151z" />
    <glyph glyph-name="uni20A9" unicode="&#x20a9;" horiz-adv-x="903" 
d="M706 0h-125l-62 235h-135l-62 -235h-125l-67 235h-114v62h96l-22 78h-74v62h57l-66 230h130l58 -230h148l62 230h93l62 -230h147l59 230h131l-66 -230h56v-62h-74l-22 -78h96v-62h-114zM576 375l60 -221l56 221h-116zM211 375l56 -221l59 221h-115zM452 493l-52 -196h103
z" />
    <glyph glyph-name="afii57636" unicode="&#x20aa;" horiz-adv-x="835" 
d="M338 550c168 0 230 -79 230 -216v-164h-100v156c0 88 -37 133 -130 133h-170v-459h-100v550h270zM537 0h-270v379h100v-288h170c93 0 130 45 130 134v325h100v-334c0 -136 -63 -216 -230 -216z" />
    <glyph glyph-name="afii61289" unicode="&#x2113;" horiz-adv-x="504" 
d="M69 495v-382c0 -89 51 -125 124 -125c39 0 75 9 98 31l-25 71c-12 -12 -28 -18 -46 -18c-31 0 -46 25 -46 58v131l163 108c72 48 139 101 139 172c0 80 -89 136 -195 136c-125 0 -212 -79 -212 -182zM301 444l-127 -84v134c0 68 45 109 105 109c49 0 97 -26 97 -67
c0 -36 -26 -59 -75 -92z" />
    <glyph glyph-name="afii61352" unicode="&#x2116;" horiz-adv-x="1125" 
d="M649 0h-113l-348 477v-477h-117v667h120l341 -462v462h117v-667zM922 350c-103 0 -168 76 -168 165c0 90 65 165 168 165c105 0 169 -75 169 -165c0 -89 -64 -165 -169 -165zM922 413c57 0 90 43 90 102c0 60 -33 101 -90 101c-55 0 -87 -41 -87 -101
c0 -59 32 -102 87 -102z" />
    <glyph glyph-name="published" unicode="&#x2117;" horiz-adv-x="778" 
d="M734 334c0 -190 -155 -345 -345 -345s-345 155 -345 345s155 345 345 345s345 -155 345 -345zM700 334c0 171 -140 311 -311 311c-170 0 -311 -140 -311 -311c0 -170 141 -311 311 -311c171 0 311 141 311 311zM553 418c0 -71 -59 -117 -127 -117h-112v-170h-41v405h153
c67 0 127 -44 127 -118zM510 418c0 49 -37 80 -84 80h-112v-158h112c47 0 84 31 84 78z" />
    <glyph glyph-name="servicemark" unicode="&#x2120;" horiz-adv-x="476" 
d="M439 447h-28v182l-75 -182h-8l-75 182v-182h-28v220h43l64 -160l64 160h43v-220zM188 506c0 -40 -30 -67 -87 -67c-39 0 -68 15 -86 36l18 21c15 -17 39 -31 68 -31c37 0 54 16 54 38c0 59 -136 26 -136 107c0 37 34 63 80 63c39 0 65 -12 82 -32l-18 -19
c-15 18 -38 27 -63 27c-28 0 -48 -15 -48 -36c0 -53 136 -22 136 -107z" />
    <glyph glyph-name="estimated" unicode="&#x212e;" horiz-adv-x="842" 
d="M811 324h-632c-3 0 -5 -2 -5 -5v-190c0 -9 3 -17 9 -23c60 -63 146 -103 240 -103c101 0 189 44 250 115h57c-71 -83 -183 -136 -309 -136c-215 0 -390 157 -390 351s175 351 390 351s390 -157 390 -351v-9zM668 349v191c0 9 -4 18 -10 24c-60 61 -143 99 -235 99
c-94 0 -179 -40 -239 -102c-6 -6 -10 -15 -10 -24v-188c0 -3 2 -6 5 -6h485c3 0 4 3 4 6z" />
    <glyph glyph-name="arrowleft" unicode="&#x2190;" horiz-adv-x="582" 
d="M538 211h-269l12 -130l-281 205l281 204l-12 -129h269v-150z" />
    <glyph glyph-name="arrowup" unicode="&#x2191;" horiz-adv-x="582" 
d="M216 17v269l-130 -12l205 281l204 -281l-129 12v-269h-150z" />
    <glyph glyph-name="arrowright" unicode="&#x2192;" horiz-adv-x="582" 
d="M584 286l-281 -205l12 130h-268v150h268l-12 129z" />
    <glyph glyph-name="arrowdown" unicode="&#x2193;" horiz-adv-x="582" 
d="M366 555v-269l130 12l-205 -281l-204 281l129 -12v269h150z" />
    <glyph glyph-name="triangleright" unicode="&#x22b2;" horiz-adv-x="587" 
d="M589 286l-535 -309v618z" />
    <glyph glyph-name="triangleleft" unicode="&#x22b3;" horiz-adv-x="587" 
d="M535 595v-618l-535 309z" />
    <glyph glyph-name="blacksquare" unicode="&#x25a0;" horiz-adv-x="661" 
d="M618 0h-571v572h571v-572z" />
    <glyph glyph-name="triagup" unicode="&#x25b2;" horiz-adv-x="616" 
d="M617 29l-619 1l309 535z" />
    <glyph glyph-name="triagdn" unicode="&#x25bc;" horiz-adv-x="616" 
d="M617 510l-310 -535l-309 535h619z" />
    <glyph glyph-name="circlesolid" unicode="&#x25cf;" horiz-adv-x="695" 
d="M644 285c0 -164 -133 -297 -297 -297s-297 133 -297 297s133 297 297 297s297 -133 297 -297z" />
    <glyph glyph-name="blackstar" unicode="&#x2605;" horiz-adv-x="759" 
d="M759 421l-235 -171l90 -275l-235 170l-234 -170l89 275l-234 171h290l89 276l90 -276h290z" />
    <glyph glyph-name="ballotbox" unicode="&#x2610;" horiz-adv-x="661" 
d="M616 0h-571v572h571v-572zM543 68v437h-424v-437h424z" />
    <glyph glyph-name="boxchecked" unicode="&#x2611;" horiz-adv-x="661" 
d="M616 0h-571v572h493l89 163l58 -37l-69 -128v-570zM543 68v368l-187 -345l-202 246l53 50l139 -170l156 288h-383v-437h424z" />
    <glyph glyph-name="diamond" unicode="&#x2666;" horiz-adv-x="501" 
d="M501 285l-251 -250l-250 250l250 251z" />
    <glyph glyph-name="checkmark" unicode="&#x2713;" horiz-adv-x="531" 
d="M531 698l-329 -607l-202 246l53 50l139 -170l281 518z" />
    <glyph glyph-name="perthousand.onum" unicode="&#xf628;" horiz-adv-x="894" 
d="M293 424c0 -77 -54 -137 -135 -137c-79 0 -133 60 -133 137s54 138 133 138c81 0 135 -61 135 -138zM579 127c0 -77 -54 -138 -133 -138c-80 0 -133 61 -133 138s53 138 133 138c79 0 133 -61 133 -138zM526 550l-384 -550h-63l382 550h65zM227 424c0 47 -28 82 -69 82
c-39 0 -67 -35 -67 -82s28 -80 67 -80c41 0 69 33 69 80zM514 127c0 47 -28 81 -68 81c-41 0 -68 -34 -68 -81s27 -80 68 -80c40 0 68 33 68 80zM869 127c0 -77 -54 -138 -134 -138c-79 0 -133 63 -133 138c0 77 54 138 133 138c80 0 134 -61 134 -138zM803 127
c0 47 -27 81 -68 81c-40 0 -68 -34 -68 -81s28 -80 68 -80c41 0 68 33 68 80z" />
    <glyph glyph-name="zero.tzero" unicode="&#xf638;" horiz-adv-x="624" 
d="M313 -12c-61 0 -110 19 -149 49l-24 -37h-84l58 90c-47 66 -68 156 -68 243c0 168 79 344 267 344c59 0 108 -18 146 -48l25 38h84l-58 -91c47 -66 69 -155 69 -243c0 -167 -79 -345 -266 -345zM313 92c108 0 147 114 147 241c0 49 -6 97 -19 136l-218 -340
c22 -23 52 -37 90 -37zM165 333c0 -49 5 -95 18 -134l218 339c-22 22 -51 35 -88 35c-109 0 -148 -112 -148 -240z" />
    <glyph glyph-name="zero.tnum" unicode="&#xf639;" horiz-adv-x="613" 
d="M307 -12c-188 0 -267 178 -267 345c0 168 79 344 267 344c187 0 266 -176 266 -344c0 -167 -79 -345 -266 -345zM307 92c108 0 147 114 147 241c0 128 -38 240 -147 240s-148 -112 -148 -240c0 -127 39 -241 148 -241z" />
    <glyph glyph-name="two.tnum" unicode="&#xf63a;" horiz-adv-x="613" 
d="M551 0h-483v93c259 196 361 282 361 379c0 70 -61 101 -122 101c-78 0 -137 -31 -180 -79l-68 76c59 72 153 107 247 107c129 0 241 -72 241 -205c0 -124 -113 -234 -291 -369h295v-103z" />
    <glyph glyph-name="three.tnum" unicode="&#xf63b;" horiz-adv-x="613" 
d="M305 -12c-118 0 -206 48 -252 108l64 77c43 -50 113 -81 184 -81c88 0 139 41 139 102c0 66 -52 95 -148 95c-28 0 -66 -1 -76 -2v106c11 -1 50 -1 76 -1c79 0 138 27 138 88s-61 93 -135 93c-69 0 -125 -25 -173 -74l-60 73c52 61 133 105 244 105
c144 0 240 -68 240 -179c0 -90 -76 -142 -144 -153c64 -7 155 -59 155 -162c0 -114 -97 -195 -252 -195z" />
    <glyph glyph-name="four.tnum" unicode="&#xf63c;" horiz-adv-x="613" 
d="M477 0h-117v151h-318v94l274 422h161v-413h89v-103h-89v-151zM360 254v308l-203 -308h203z" />
    <glyph glyph-name="five.tnum" unicode="&#xf63d;" horiz-adv-x="613" 
d="M309 -12c-114 0 -193 40 -247 103l67 81c44 -52 105 -80 179 -80c85 0 137 52 137 118c0 71 -52 118 -134 118c-56 0 -103 -17 -146 -57l-83 24v372h437v-103h-320v-192c33 31 87 57 151 57c113 0 214 -78 214 -215c0 -138 -106 -226 -255 -226z" />
    <glyph glyph-name="six.tnum" unicode="&#xf63e;" horiz-adv-x="613" 
d="M326 -12c-196 0 -275 159 -275 345c0 192 101 344 294 344c82 0 146 -29 191 -74l-54 -88c-35 36 -74 58 -137 58c-112 0 -176 -103 -176 -220v-19c31 45 101 94 179 94c120 0 224 -74 224 -216c0 -123 -97 -224 -246 -224zM319 92c88 0 134 63 134 116
c0 82 -64 119 -136 119c-57 0 -113 -30 -146 -78c6 -72 46 -157 148 -157z" />
    <glyph glyph-name="seven.tnum" unicode="&#xf63f;" horiz-adv-x="613" 
d="M290 0h-129l252 564h-346v103h481v-81z" />
    <glyph glyph-name="eight.tnum" unicode="&#xf640;" horiz-adv-x="613" 
d="M307 -12c-137 0 -256 64 -256 184c0 84 69 145 150 172c-75 24 -139 74 -139 158c0 124 127 175 245 175s245 -51 245 -175c0 -84 -64 -134 -139 -158c81 -27 150 -88 150 -172c0 -120 -120 -184 -256 -184zM307 391c41 7 126 31 126 93c0 57 -54 89 -126 89
s-126 -32 -126 -89c0 -62 86 -86 126 -93zM307 92c74 0 137 36 137 95c0 69 -96 99 -137 105c-42 -6 -137 -36 -137 -105c0 -59 61 -95 137 -95z" />
    <glyph glyph-name="nine.tnum" unicode="&#xf641;" horiz-adv-x="613" 
d="M271 -11c-83 0 -147 30 -192 74l55 89c35 -37 73 -59 137 -59c121 0 176 111 176 220c0 6 0 13 -1 19c-30 -45 -100 -93 -179 -93c-120 0 -223 73 -223 215c0 124 97 224 246 224c196 0 275 -159 275 -344c0 -193 -101 -345 -294 -345zM299 339c57 0 112 31 146 79
c-7 72 -46 156 -149 156c-88 0 -134 -62 -134 -116c0 -82 64 -119 137 -119z" />
    <glyph glyph-name="percent.onum" unicode="&#xf642;" horiz-adv-x="604" 
d="M293 424c0 -77 -54 -137 -135 -137c-79 0 -133 60 -133 137s54 138 133 138c81 0 135 -61 135 -138zM579 127c0 -77 -54 -138 -133 -138c-80 0 -133 61 -133 138s53 138 133 138c79 0 133 -61 133 -138zM526 550l-384 -550h-63l382 550h65zM227 424c0 47 -28 82 -69 82
c-39 0 -67 -35 -67 -82c0 -46 28 -80 67 -80c41 0 69 34 69 80zM514 127c0 47 -28 81 -68 81c-41 0 -68 -34 -68 -81s27 -80 68 -80c40 0 68 33 68 80z" />
    <glyph glyph-name="zero.tonum" unicode="&#xf643;" horiz-adv-x="613" 
d="M573 275c0 -147 -83 -287 -266 -287c-184 0 -267 140 -267 287c0 148 83 287 267 287c183 0 266 -139 266 -287zM454 275c0 97 -45 183 -147 183s-148 -86 -148 -183c0 -96 46 -183 148 -183c101 0 147 87 147 183z" />
    <glyph glyph-name="one.tonum" unicode="&#xf644;" horiz-adv-x="613" 
d="M428 0h-117v399l-109 -114l-68 71l192 194h102v-550z" />
    <glyph glyph-name="two.tonum" unicode="&#xf645;" horiz-adv-x="613" 
d="M529 0h-453v93c251 92 345 190 345 269c0 58 -51 96 -115 96c-73 0 -137 -28 -181 -79l-68 76c59 72 157 107 251 107c138 0 232 -70 232 -181c0 -112 -116 -220 -252 -278h241v-103z" />
    <glyph glyph-name="three.tonum" unicode="&#xf646;" horiz-adv-x="613" 
d="M305 -132c-118 0 -206 48 -252 108l64 77c43 -50 113 -81 184 -81c88 0 139 41 139 102c0 66 -52 95 -148 95c-28 0 -66 -1 -76 -2v106c11 -1 50 -1 76 -1c79 0 138 27 138 88s-61 93 -135 93c-69 0 -125 -25 -173 -74l-60 73c52 61 133 105 244 105
c144 0 240 -68 240 -179c0 -90 -76 -142 -144 -153c64 -7 155 -59 155 -162c0 -114 -97 -195 -252 -195z" />
    <glyph glyph-name="four.tonum" unicode="&#xf647;" horiz-adv-x="613" 
d="M566 39h-89v-156h-117v156h-318v94l274 417h161v-408h89v-103zM360 142v303l-203 -303h203z" />
    <glyph glyph-name="five.tonum" unicode="&#xf648;" horiz-adv-x="613" 
d="M309 -129c-114 0 -193 40 -247 103l67 81c44 -52 105 -80 179 -80c85 0 137 52 137 118c0 71 -52 118 -134 118c-56 0 -103 -17 -146 -57l-83 24v372h437v-103h-320v-192c33 31 87 57 151 57c113 0 214 -78 214 -215c0 -138 -106 -226 -255 -226z" />
    <glyph glyph-name="six.tonum" unicode="&#xf649;" horiz-adv-x="613" 
d="M326 -12c-196 0 -275 159 -275 345c0 192 101 344 294 344c82 0 146 -29 191 -74l-54 -88c-35 36 -74 58 -137 58c-112 0 -176 -103 -176 -220v-19c31 45 101 94 179 94c120 0 224 -74 224 -216c0 -123 -97 -224 -246 -224zM319 92c88 0 134 63 134 116
c0 82 -64 119 -136 119c-57 0 -113 -30 -146 -78c6 -72 46 -157 148 -157z" />
    <glyph glyph-name="seven.tonum" unicode="&#xf64a;" horiz-adv-x="613" 
d="M290 -117h-129l252 564h-346v103h481v-81z" />
    <glyph glyph-name="eight.tonum" unicode="&#xf64b;" horiz-adv-x="613" 
d="M307 -12c-137 0 -256 64 -256 184c0 84 69 145 150 172c-75 24 -139 74 -139 158c0 124 127 175 245 175s245 -51 245 -175c0 -84 -64 -134 -139 -158c81 -27 150 -88 150 -172c0 -120 -120 -184 -256 -184zM307 391c41 7 126 31 126 93c0 57 -54 89 -126 89
s-126 -32 -126 -89c0 -62 86 -86 126 -93zM307 92c74 0 137 36 137 95c0 69 -96 99 -137 105c-42 -6 -137 -36 -137 -105c0 -59 61 -95 137 -95z" />
    <glyph glyph-name="nine.tonum" unicode="&#xf64c;" horiz-adv-x="613" 
d="M271 -127c-83 0 -147 30 -192 74l55 89c35 -37 73 -59 137 -59c121 0 176 111 176 220c0 6 0 13 -1 19c-30 -45 -100 -93 -179 -93c-120 0 -223 73 -223 215c0 124 97 224 246 224c196 0 275 -159 275 -344c0 -193 -101 -345 -294 -345zM299 223c57 0 112 31 146 79
c-7 72 -46 156 -149 156c-88 0 -134 -62 -134 -116c0 -82 64 -119 137 -119z" />
    <glyph glyph-name="colonmonetary.onum" unicode="&#xf64d;" horiz-adv-x="584" 
d="M240 -53l17 50c-18 4 -35 10 -52 17l-22 -67h-52l31 91c-76 50 -123 134 -123 238c0 169 127 286 297 286h3l13 37h51l-14 -42c18 -3 36 -9 52 -15l19 57h52l-27 -80c33 -23 60 -52 80 -85l-90 -46c-7 11 -15 21 -24 31l-114 -335c59 0 112 32 138 78l91 -45
c-45 -72 -121 -129 -230 -129c-11 0 -21 1 -31 2l-14 -43h-51zM150 276c0 -53 18 -98 48 -132l108 319c-92 -13 -156 -88 -156 -187zM238 110c15 -9 32 -16 50 -21l121 360c-16 8 -33 13 -52 15z" />
    <glyph glyph-name="Euro.onum" unicode="&#xf64e;" horiz-adv-x="611" 
d="M404 301h-226c-1 -8 -1 -17 -1 -25c0 -9 1 -19 2 -27h225v-54h-211c28 -67 91 -111 170 -111c59 0 113 32 139 78l91 -45c-45 -72 -121 -129 -230 -129c-142 0 -253 81 -287 207h-50v54h41c-1 9 -1 18 -1 27c0 8 0 17 1 25h-41v53h50c32 126 144 208 287 208
c110 0 185 -56 229 -128l-90 -46c-27 47 -80 78 -139 78c-80 0 -144 -44 -171 -112h212v-53z" />
    <glyph glyph-name="florin.onum" unicode="&#xf64f;" horiz-adv-x="385" 
d="M136 -119h-118l72 327h-45v76h62l26 116c23 104 78 161 165 161c35 0 70 -9 97 -36l-40 -83c-9 11 -22 16 -39 16c-38 0 -58 -33 -67 -75l-23 -99h94v-76h-110z" />
    <glyph glyph-name="numbersign.onum" unicode="&#xf650;" horiz-adv-x="508" 
d="M489 399l-17 -59h-83l-43 -126h85l-19 -60h-86l-51 -154h-73l51 154h-82l-51 -154h-73l52 154h-80l19 60h82l42 126h-83l18 59h84l52 151h73l-52 -151h81l52 151h73l-52 -151h81zM315 340h-81l-42 -126h81z" />
    <glyph glyph-name="sterling.onum" unicode="&#xf651;" horiz-adv-x="439" 
d="M15 224v60h56c-19 31 -36 66 -36 107c0 100 91 170 192 170c83 0 149 -32 182 -93l-81 -44c-17 39 -52 59 -90 59c-52 0 -95 -36 -95 -93c0 -41 20 -74 40 -106h131v-60h-99c4 -12 7 -25 7 -38c0 -38 -22 -72 -46 -88c6 2 12 3 20 3c51 0 76 -25 117 -25
c31 0 61 13 74 30l43 -76c-24 -24 -68 -41 -121 -41c-72 0 -87 34 -147 34c-26 0 -61 -14 -92 -31l-36 70c62 27 96 63 96 100c0 21 -9 41 -20 62h-95z" />
    <glyph glyph-name="yen.onum" unicode="&#xf652;" horiz-adv-x="557" 
d="M334 0h-108v110h-201v59h201v59h-201v59h160l-185 263h125l156 -228l153 228h123l-183 -263h157v-59h-197v-59h197v-59h-197v-110z" />
    <glyph glyph-name="cent.onum" unicode="&#xf654;" horiz-adv-x="584" 
d="M293 -87v78c-148 17 -254 129 -254 285c0 154 106 265 254 283v63h79v-62c90 -11 154 -62 193 -126l-90 -46c-22 37 -59 64 -103 74v-374c44 10 82 37 103 74l91 -45c-40 -64 -104 -116 -194 -127v-77h-79zM150 276c0 -95 58 -169 143 -188v373
c-85 -18 -143 -91 -143 -185z" />
    <glyph glyph-name="zero.dnom" unicode="&#xf655;" 
d="M365 200c0 -102 -51 -207 -168 -207s-168 105 -168 207s51 206 168 206s168 -104 168 -206zM283 200c0 80 -24 141 -86 141c-63 0 -86 -61 -86 -141c0 -79 24 -142 86 -142s86 63 86 142z" />
    <glyph glyph-name="one.dnom" unicode="&#xf656;" horiz-adv-x="264" 
d="M204 0h-81v297l-66 -69l-47 49l124 123h70v-400z" />
    <glyph glyph-name="two.dnom" unicode="&#xf657;" 
d="M353 0h-305v60c164 116 221 166 221 219c0 43 -34 62 -75 62c-47 0 -90 -24 -110 -50l-43 51c38 44 100 64 155 64c84 0 154 -40 154 -121c0 -72 -68 -136 -185 -220h188v-65z" />
    <glyph glyph-name="three.dnom" unicode="&#xf658;" 
d="M355 110c0 -68 -62 -117 -160 -117c-74 0 -130 28 -158 64l41 52c28 -33 74 -51 115 -51c52 0 81 23 81 57c0 44 -41 58 -95 58c-17 0 -36 0 -42 -1v64c7 -1 25 -1 42 -1c54 0 89 15 89 54c0 35 -36 52 -80 52c-42 0 -78 -14 -108 -45l-38 47c32 36 83 63 154 63
c94 0 152 -42 152 -108c0 -53 -46 -84 -89 -91c40 -4 96 -35 96 -97z" />
    <glyph glyph-name="four.dnom" unicode="&#xf659;" 
d="M364 92h-54v-92h-80v92h-197v57l165 251h112v-244h54v-64zM230 156v175l-117 -175h117z" />
    <glyph glyph-name="five.dnom" unicode="&#xf65a;" 
d="M355 130c0 -82 -65 -137 -161 -137c-71 0 -123 25 -155 64l44 53c28 -34 67 -52 111 -52c51 0 82 31 82 69c0 42 -31 70 -80 70c-35 0 -63 -12 -89 -38l-56 19v222h277v-65h-196v-113c19 19 53 35 92 35c69 0 131 -43 131 -127z" />
    <glyph glyph-name="six.dnom" unicode="&#xf65b;" 
d="M362 129c0 -76 -62 -136 -155 -136c-123 0 -174 94 -174 207c0 119 66 206 187 206c50 0 91 -16 120 -42l-36 -57c-23 23 -46 34 -84 34c-70 0 -106 -58 -107 -122c0 -4 0 -9 1 -13c20 28 61 55 108 55c75 0 140 -46 140 -132zM281 126c0 50 -39 72 -81 72
c-32 0 -65 -16 -85 -44c3 -46 27 -96 89 -96c49 0 77 36 77 68z" />
    <glyph glyph-name="seven.dnom" unicode="&#xf65c;" horiz-adv-x="367" 
d="M333 345l-155 -345h-90l157 335h-216v65h304v-55z" />
    <glyph glyph-name="eight.dnom" unicode="&#xf65d;" 
d="M359 104c0 -78 -78 -111 -162 -111s-163 33 -163 111c0 49 44 89 98 102c-50 12 -91 45 -91 94c0 76 81 106 156 106c74 0 156 -30 156 -106c0 -49 -41 -82 -91 -94c53 -13 97 -53 97 -102zM272 290c0 35 -31 54 -75 54s-76 -19 -76 -54c0 -41 58 -54 76 -58
c19 4 75 17 75 58zM279 111c0 47 -63 64 -82 66c-19 -2 -83 -19 -83 -66c0 -36 37 -56 83 -56c45 0 82 20 82 56z" />
    <glyph glyph-name="nine.dnom" unicode="&#xf65e;" 
d="M33 270c0 77 61 136 155 136c123 0 174 -93 174 -206c0 -120 -67 -207 -188 -207c-50 0 -90 17 -119 42l36 57c22 -22 46 -34 84 -34c67 0 105 56 106 123v12c-21 -27 -62 -55 -108 -55c-74 0 -140 47 -140 132zM114 273c0 -49 39 -71 80 -71c33 0 65 16 86 45
c-4 45 -28 94 -88 94c-50 0 -78 -36 -78 -68z" />
    <glyph glyph-name="zero.numr" unicode="&#xf661;" 
d="M365 467c0 -102 -51 -207 -168 -207s-168 105 -168 207s51 206 168 206s168 -104 168 -206zM283 467c0 80 -24 141 -86 141c-63 0 -86 -61 -86 -141c0 -79 24 -142 86 -142s86 63 86 142z" />
    <glyph glyph-name="one.numr" unicode="&#xf662;" horiz-adv-x="264" 
d="M204 267h-81v297l-66 -69l-47 49l124 123h70v-400z" />
    <glyph glyph-name="two.numr" unicode="&#xf663;" 
d="M353 267h-305v60c164 116 221 166 221 219c0 43 -34 62 -75 62c-47 0 -90 -24 -110 -50l-43 51c38 44 100 64 155 64c84 0 154 -40 154 -121c0 -72 -68 -136 -185 -220h188v-65z" />
    <glyph glyph-name="three.numr" unicode="&#xf664;" 
d="M355 377c0 -68 -62 -117 -160 -117c-74 0 -130 28 -158 64l41 52c28 -33 74 -51 115 -51c52 0 81 23 81 57c0 44 -41 58 -95 58c-17 0 -36 0 -42 -1v64c7 -1 25 -1 42 -1c54 0 89 15 89 54c0 35 -36 52 -80 52c-42 0 -78 -14 -108 -45l-38 47c32 36 83 63 154 63
c94 0 152 -42 152 -108c0 -53 -46 -84 -89 -91c40 -4 96 -35 96 -97z" />
    <glyph glyph-name="four.numr" unicode="&#xf665;" 
d="M364 359h-54v-92h-80v92h-197v57l165 251h112v-244h54v-64zM230 423v175l-117 -175h117z" />
    <glyph glyph-name="five.numr" unicode="&#xf666;" 
d="M355 397c0 -82 -65 -137 -161 -137c-71 0 -123 25 -155 64l44 53c28 -34 67 -52 111 -52c51 0 82 31 82 69c0 42 -31 70 -80 70c-35 0 -63 -12 -89 -38l-56 19v222h277v-65h-196v-113c19 19 53 35 92 35c69 0 131 -43 131 -127z" />
    <glyph glyph-name="six.numr" unicode="&#xf667;" 
d="M362 396c0 -76 -62 -136 -155 -136c-123 0 -174 94 -174 207c0 119 66 206 187 206c50 0 91 -16 120 -42l-36 -57c-23 23 -46 34 -84 34c-70 0 -106 -58 -107 -122c0 -4 0 -9 1 -13c20 28 61 55 108 55c75 0 140 -46 140 -132zM281 393c0 50 -39 72 -81 72
c-32 0 -65 -16 -85 -44c3 -46 27 -96 89 -96c49 0 77 36 77 68z" />
    <glyph glyph-name="seven.numr" unicode="&#xf668;" horiz-adv-x="367" 
d="M333 612l-155 -345h-90l157 335h-216v65h304v-55z" />
    <glyph glyph-name="eight.numr" unicode="&#xf669;" 
d="M359 371c0 -78 -78 -111 -162 -111s-163 33 -163 111c0 49 44 89 98 102c-50 12 -91 45 -91 94c0 76 81 106 156 106c74 0 156 -30 156 -106c0 -49 -41 -82 -91 -94c53 -13 97 -53 97 -102zM272 557c0 35 -31 54 -75 54s-76 -19 -76 -54c0 -41 58 -54 76 -58
c19 4 75 17 75 58zM279 378c0 47 -63 64 -82 66c-19 -2 -83 -19 -83 -66c0 -36 37 -56 83 -56c45 0 82 20 82 56z" />
    <glyph glyph-name="nine.numr" unicode="&#xf66a;" 
d="M33 537c0 77 61 136 155 136c123 0 174 -93 174 -206c0 -120 -67 -207 -188 -207c-50 0 -90 17 -119 42l36 57c22 -22 46 -34 84 -34c67 0 105 56 106 123v12c-21 -27 -62 -55 -108 -55c-74 0 -140 47 -140 132zM114 540c0 -49 39 -71 80 -71c33 0 65 16 86 45
c-4 45 -28 94 -88 94c-50 0 -78 -36 -78 -68z" />
    <glyph glyph-name="Abreve.smcp" unicode="&#xf66d;" horiz-adv-x="586" 
d="M228 550h131l227 -550h-122l-42 104h-257l-42 -104h-123zM390 199l-96 240l-97 -240h193zM470 687c-40 -54 -103 -88 -175 -88c-71 0 -135 34 -176 88l49 41c28 -40 73 -67 127 -67s98 25 128 67z" />
    <glyph glyph-name="Amacron.smcp" unicode="&#xf66e;" horiz-adv-x="586" 
d="M228 550h131l227 -550h-122l-42 104h-257l-42 -104h-123zM390 199l-96 240l-97 -240h193zM476 626h-363v62h363v-62z" />
    <glyph glyph-name="Aogonek.smcp" unicode="&#xf66f;" horiz-adv-x="586" 
d="M228 550h131l227 -550c-49 -24 -74 -55 -74 -93c0 -32 18 -46 41 -46c24 0 38 15 46 38l46 -27c-17 -32 -45 -58 -92 -58c-50 0 -96 26 -96 89c0 37 18 71 49 97h-42l-42 104h-257l-42 -104h-123zM390 199l-96 240l-97 -240h193z" />
    <glyph glyph-name="AEacute.smcp" unicode="&#xf670;" horiz-adv-x="835" 
d="M600 750l-165 -144h-75l140 144h100zM789 0h-401v104h-202l-63 -104h-124l347 550h443v-95h-292v-127h286v-95h-286v-138h292v-95zM388 199v240l-149 -240h149z" />
    <glyph glyph-name="Cacute.smcp" unicode="&#xf671;" horiz-adv-x="584" 
d="M336 -12c-170 0 -297 118 -297 288c0 169 127 286 297 286c110 0 185 -56 229 -128l-90 -46c-27 47 -80 78 -139 78c-107 0 -186 -80 -186 -190s79 -192 186 -192c59 0 113 32 139 78l91 -45c-45 -72 -121 -129 -230 -129zM502 750l-165 -144h-75l140 144h100z" />
    <glyph glyph-name="Ccaron.smcp" unicode="&#xf672;" horiz-adv-x="584" 
d="M336 -12c-170 0 -297 118 -297 288c0 169 127 286 297 286c110 0 185 -56 229 -128l-90 -46c-27 47 -80 78 -139 78c-107 0 -186 -80 -186 -190s79 -192 186 -192c59 0 113 32 139 78l91 -45c-45 -72 -121 -129 -230 -129zM387 606h-96l-96 144h67l77 -96l75 96h66z" />
    <glyph glyph-name="Ccircumflex.smcp" unicode="&#xf673;" horiz-adv-x="584" 
d="M336 -12c-170 0 -297 118 -297 288c0 169 127 286 297 286c110 0 185 -56 229 -128l-90 -46c-27 47 -80 78 -139 78c-107 0 -186 -80 -186 -190s79 -192 186 -192c59 0 113 32 139 78l91 -45c-45 -72 -121 -129 -230 -129zM480 606h-66l-78 97l-74 -97h-67l93 144h96z
" />
    <glyph glyph-name="Cdotaccent.smcp" unicode="&#xf674;" horiz-adv-x="584" 
d="M336 -12c-170 0 -297 118 -297 288c0 169 127 286 297 286c110 0 185 -56 229 -128l-90 -46c-27 47 -80 78 -139 78c-107 0 -186 -80 -186 -190s79 -192 186 -192c59 0 113 32 139 78l91 -45c-45 -72 -121 -129 -230 -129zM338 621c-32 0 -59 26 -59 59c0 32 27 59 59 59
s59 -27 59 -59c0 -33 -27 -59 -59 -59z" />
    <glyph glyph-name="Dcaron.smcp" unicode="&#xf675;" horiz-adv-x="622" 
d="M275 0h-218v550h218c181 0 297 -114 297 -275c0 -162 -116 -275 -297 -275zM275 95c121 0 186 82 186 180c0 100 -61 180 -186 180h-108v-360h108zM353 606h-96l-96 144h67l77 -96l75 96h66z" />
    <glyph glyph-name="Dcroat.smcp" unicode="&#xf676;" horiz-adv-x="631" 
d="M285 0h-218v239h-57v72h57v239h218c181 0 297 -114 297 -275c0 -162 -116 -275 -297 -275zM299 239h-122v-144h108c121 0 186 82 186 180c0 100 -61 180 -186 180h-108v-144h122v-72z" />
    <glyph glyph-name="Ebreve.smcp" unicode="&#xf677;" horiz-adv-x="515" 
d="M469 0h-401v550h401v-95h-291v-127h286v-95h-286v-138h291v-95zM444 687c-40 -54 -103 -88 -175 -88c-71 0 -135 34 -176 88l49 41c28 -40 73 -67 127 -67s98 25 128 67z" />
    <glyph glyph-name="Ecaron.smcp" unicode="&#xf678;" horiz-adv-x="515" 
d="M469 0h-401v550h401v-95h-291v-127h286v-95h-286v-138h291v-95zM319 606h-96l-96 144h67l77 -96l75 96h66z" />
    <glyph glyph-name="Edotaccent.smcp" unicode="&#xf679;" horiz-adv-x="515" 
d="M469 0h-401v550h401v-95h-291v-127h286v-95h-286v-138h291v-95zM274 621c-32 0 -59 26 -59 59c0 32 27 59 59 59s59 -27 59 -59c0 -33 -27 -59 -59 -59z" />
    <glyph glyph-name="Emacron.smcp" unicode="&#xf67a;" horiz-adv-x="515" 
d="M469 0h-401v550h401v-95h-291v-127h286v-95h-286v-138h291v-95zM449 626h-363v62h363v-62z" />
    <glyph glyph-name="Eng.smcp" unicode="&#xf67b;" horiz-adv-x="642" 
d="M371 -196c-59 0 -112 20 -151 63l46 81c23 -27 55 -48 97 -48c62 0 101 40 101 99v1h-1l-286 381v-381h-109v550h117l280 -370v370h109v-561c0 -127 -84 -185 -203 -185z" />
    <glyph glyph-name="Eogonek.smcp" unicode="&#xf67c;" horiz-adv-x="515" 
d="M482 -101l46 -27c-17 -32 -45 -58 -92 -58c-50 0 -96 26 -96 89c0 37 18 71 49 97h-321v550h401v-95h-291v-127h286v-95h-286v-138h291v-95c-49 -24 -74 -55 -74 -93c0 -32 18 -46 41 -46c24 0 38 15 46 38z" />
    <glyph glyph-name="Gbreve.smcp" unicode="&#xf67d;" horiz-adv-x="620" 
d="M337 -12c-167 0 -298 115 -298 287c0 173 131 287 298 287c103 0 179 -49 226 -110l-88 -54c-30 40 -79 68 -138 68c-108 0 -187 -80 -187 -191c0 -110 79 -191 187 -191c57 0 100 24 125 47v79h-148v90h257v-211c-58 -61 -138 -101 -234 -101zM514 687
c-40 -54 -103 -88 -175 -88c-71 0 -135 34 -176 88l49 41c28 -40 73 -67 127 -67s98 25 128 67z" />
    <glyph glyph-name="Gcircumflex.smcp" unicode="&#xf67e;" horiz-adv-x="620" 
d="M337 -12c-167 0 -298 115 -298 287c0 173 131 287 298 287c103 0 179 -49 226 -110l-88 -54c-30 40 -79 68 -138 68c-108 0 -187 -80 -187 -191c0 -110 79 -191 187 -191c57 0 100 24 125 47v79h-148v90h257v-211c-58 -61 -138 -101 -234 -101zM480 606h-66l-78 97
l-74 -97h-67l93 144h96z" />
    <glyph glyph-name="Gcommaaccent.smcp" unicode="&#xf67f;" horiz-adv-x="620" 
d="M337 -12c-167 0 -298 115 -298 287c0 173 131 287 298 287c103 0 179 -49 226 -110l-88 -54c-30 40 -79 68 -138 68c-108 0 -187 -80 -187 -191c0 -110 79 -191 187 -191c57 0 100 24 125 47v79h-148v90h257v-211c-58 -61 -138 -101 -234 -101zM402 -138
c0 -58 -33 -111 -78 -143l-38 31c28 17 56 53 60 82c-1 -1 -8 -2 -13 -2c-28 0 -49 21 -49 51c0 31 25 56 55 56c33 0 63 -27 63 -75z" />
    <glyph glyph-name="Gdotaccent.smcp" unicode="&#xf680;" horiz-adv-x="620" 
d="M337 -12c-167 0 -298 115 -298 287c0 173 131 287 298 287c103 0 179 -49 226 -110l-88 -54c-30 40 -79 68 -138 68c-108 0 -187 -80 -187 -191c0 -110 79 -191 187 -191c57 0 100 24 125 47v79h-148v90h257v-211c-58 -61 -138 -101 -234 -101zM337 621
c-32 0 -59 26 -59 59c0 32 27 59 59 59s59 -27 59 -59c0 -33 -27 -59 -59 -59z" />
    <glyph glyph-name="Hcircumflex.smcp" unicode="&#xf681;" horiz-adv-x="644" 
d="M576 0h-108v235h-290v-235h-110v550h110v-220h290v220h108v-550zM463 606h-66l-78 97l-74 -97h-67l93 144h96z" />
    <glyph glyph-name="Hbar.smcp" unicode="&#xf682;" horiz-adv-x="662" 
d="M586 0h-108v235h-290v-235h-110v411h-68v62h68v77h110v-77h290v77h108v-77h67v-62h-67v-411zM188 330h290v81h-290v-81z" />
    <glyph glyph-name="Ibreve.smcp" unicode="&#xf683;" horiz-adv-x="242" 
d="M176 0h-110v550h110v-550zM295 687c-40 -54 -103 -88 -175 -88c-71 0 -135 34 -176 88l49 41c28 -40 73 -67 127 -67s98 25 128 67z" />
    <glyph glyph-name="IJ.smcp" unicode="&#xf684;" horiz-adv-x="674" 
d="M178 0h-110v550h110v-550zM404 -12c-59 0 -112 20 -152 63l46 82c23 -27 56 -49 98 -49c62 0 101 39 101 98v368h109v-377c0 -127 -84 -185 -202 -185z" />
    <glyph glyph-name="Imacron.smcp" unicode="&#xf685;" horiz-adv-x="242" 
d="M176 0h-110v550h110v-550zM304 626h-363v62h363v-62z" />
    <glyph glyph-name="Iogonek.smcp" unicode="&#xf686;" horiz-adv-x="242" 
d="M190 -101l46 -27c-17 -32 -45 -58 -92 -58c-50 0 -96 26 -96 89c0 37 18 71 49 97h-30v550h110v-550c-49 -24 -74 -55 -74 -93c0 -32 18 -46 41 -46c24 0 38 15 46 38z" />
    <glyph glyph-name="Itilde.smcp" unicode="&#xf687;" horiz-adv-x="242" 
d="M177 0h-110v550h110v-550zM180 589c-69 0 -77 78 -119 78c-23 0 -41 -22 -41 -72h-58c0 82 36 134 103 134c70 0 77 -78 119 -78c23 0 42 22 42 72h57c0 -82 -36 -134 -103 -134z" />
    <glyph glyph-name="Jcircumflex.smcp" unicode="&#xf688;" horiz-adv-x="428" 
d="M158 -12c-59 0 -112 20 -152 63l46 82c23 -27 56 -49 98 -49c62 0 101 39 101 98v368h109v-377c0 -127 -84 -185 -202 -185zM448 606h-66l-78 97l-74 -97h-67l93 144h96z" />
    <glyph glyph-name="Kcommaaccent.smcp" unicode="&#xf689;" horiz-adv-x="553" 
d="M546 0h-133l-190 227l-45 -51v-176h-110v550h110v-251l217 251h134l-235 -259zM342 -138c0 -58 -33 -111 -78 -143l-38 31c28 17 56 53 60 82c-1 -1 -8 -2 -13 -2c-28 0 -49 21 -49 51c0 31 25 56 55 56c33 0 63 -27 63 -75z" />
    <glyph glyph-name="Lacute.smcp" unicode="&#xf68a;" horiz-adv-x="464" 
d="M430 0h-362v550h110v-455h252v-95zM418 750l-165 -144h-75l140 144h100z" />
    <glyph glyph-name="Lcaron.smcp" unicode="&#xf68b;" horiz-adv-x="464" 
d="M430 0h-362v550h110v-455h252v-95zM366 485c0 -58 -33 -111 -78 -143l-38 31c28 17 56 53 60 82c-1 -1 -8 -2 -13 -2c-28 0 -49 21 -49 51c0 31 25 56 55 56c33 0 63 -27 63 -75z" />
    <glyph glyph-name="Lcommaaccent.smcp" unicode="&#xf68c;" horiz-adv-x="464" 
d="M430 0h-362v550h110v-455h252v-95zM311 -138c0 -58 -33 -111 -78 -143l-38 31c28 17 56 53 60 82c-1 -1 -8 -2 -13 -2c-28 0 -49 21 -49 51c0 31 25 56 55 56c33 0 63 -27 63 -75z" />
    <glyph glyph-name="Ldot.smcp" unicode="&#xf68d;" horiz-adv-x="488" 
d="M430 0h-362v550h110v-455h252v-95zM440 300c0 -38 -31 -70 -69 -70s-70 32 -70 70c0 37 32 69 70 69s69 -32 69 -69z" />
    <glyph glyph-name="Nacute.smcp" unicode="&#xf68e;" horiz-adv-x="642" 
d="M574 0h-111l-286 381v-381h-109v550h117l280 -370v370h109v-550zM485 750l-165 -144h-75l140 144h100z" />
    <glyph glyph-name="Ncaron.smcp" unicode="&#xf68f;" horiz-adv-x="642" 
d="M574 0h-111l-286 381v-381h-109v550h117l280 -370v370h109v-550zM370 606h-96l-96 144h67l77 -96l75 96h66z" />
    <glyph glyph-name="Ncommaaccent.smcp" unicode="&#xf690;" horiz-adv-x="642" 
d="M574 0h-111l-286 381v-381h-109v550h117l280 -370v370h109v-550zM383 -138c0 -58 -33 -111 -78 -143l-38 31c28 17 56 53 60 82c-1 -1 -8 -2 -13 -2c-28 0 -49 21 -49 51c0 31 25 56 55 56c33 0 63 -27 63 -75z" />
    <glyph glyph-name="Obreve.smcp" unicode="&#xf691;" horiz-adv-x="658" 
d="M329 -12c-173 0 -290 123 -290 287s117 287 290 287s291 -123 291 -287s-118 -287 -291 -287zM329 84c109 0 179 83 179 191c0 109 -70 191 -179 191s-179 -82 -179 -191c0 -108 70 -191 179 -191zM506 687c-40 -54 -103 -88 -175 -88c-71 0 -135 34 -176 88l49 41
c28 -40 73 -67 127 -67s98 25 128 67z" />
    <glyph glyph-name="Ohungarumlaut.smcp" unicode="&#xf692;" horiz-adv-x="658" 
d="M329 -12c-173 0 -290 123 -290 287s117 287 290 287s291 -123 291 -287s-118 -287 -291 -287zM329 84c109 0 179 83 179 191c0 109 -70 191 -179 191s-179 -82 -179 -191c0 -108 70 -191 179 -191zM392 750l-115 -144h-63l90 144h88zM538 750l-115 -144h-63l90 144h88z
" />
    <glyph glyph-name="Omacron.smcp" unicode="&#xf693;" horiz-adv-x="658" 
d="M329 -12c-173 0 -290 123 -290 287s117 287 290 287s291 -123 291 -287s-118 -287 -291 -287zM329 84c109 0 179 83 179 191c0 109 -70 191 -179 191s-179 -82 -179 -191c0 -108 70 -191 179 -191zM512 631h-363v62h363v-62z" />
    <glyph glyph-name="Oslashacute.smcp" unicode="&#xf694;" horiz-adv-x="658" 
d="M329 -12c-57 0 -108 13 -150 36l-19 -24h-87l50 66c-53 51 -84 124 -84 209c0 164 117 287 290 287c55 0 105 -13 147 -35l18 23h87l-49 -64c56 -51 88 -126 88 -211c0 -164 -118 -287 -291 -287zM329 84c109 0 179 83 179 191c0 49 -15 93 -41 126l-226 -296
c25 -14 55 -21 88 -21zM150 275c0 -48 13 -91 38 -124l226 295c-24 13 -53 20 -85 20c-109 0 -179 -82 -179 -191zM496 750l-165 -144h-75l140 144h100z" />
    <glyph glyph-name="Racute.smcp" unicode="&#xf695;" horiz-adv-x="562" 
d="M522 0h-125l-124 200h-95v-200h-110v550h260c120 0 189 -78 189 -175c0 -98 -63 -155 -136 -165zM316 295c58 0 89 33 89 80s-32 80 -89 80h-138v-160h138zM438 750l-165 -144h-75l140 144h100z" />
    <glyph glyph-name="Rcaron.smcp" unicode="&#xf696;" horiz-adv-x="562" 
d="M522 0h-125l-124 200h-95v-200h-110v550h260c120 0 189 -78 189 -175c0 -98 -63 -155 -136 -165zM316 295c58 0 89 33 89 80s-32 80 -89 80h-138v-160h138zM323 606h-96l-96 144h67l77 -96l75 96h66z" />
    <glyph glyph-name="Rcommaaccent.smcp" unicode="&#xf697;" horiz-adv-x="562" 
d="M522 0h-125l-124 200h-95v-200h-110v550h260c120 0 189 -78 189 -175c0 -98 -63 -155 -136 -165zM316 295c58 0 89 33 89 80s-32 80 -89 80h-138v-160h138zM339 -138c0 -58 -33 -111 -78 -143l-38 31c28 17 56 53 60 82c-1 -1 -8 -2 -13 -2c-28 0 -49 21 -49 51
c0 31 25 56 55 56c33 0 63 -27 63 -75z" />
    <glyph glyph-name="Sacute.smcp" unicode="&#xf698;" horiz-adv-x="511" 
d="M254 -12c-101 0 -183 37 -230 84l53 84c37 -38 106 -74 181 -74c80 0 113 34 113 74c0 112 -329 38 -329 242c0 92 86 164 212 164c92 0 164 -30 216 -79l-53 -78c-42 42 -107 64 -164 64c-60 0 -99 -29 -99 -68c0 -98 329 -31 329 -241c0 -100 -77 -172 -229 -172z
M422 750l-165 -144h-75l140 144h100z" />
    <glyph glyph-name="Scedilla.smcp" unicode="&#xf699;" horiz-adv-x="511" 
d="M252 -194c-45 0 -85 15 -106 31l23 46c25 -20 53 -29 81 -29c29 0 55 12 55 36c0 19 -11 30 -32 30c-14 0 -27 -6 -35 -15l-40 23l22 62c-86 7 -155 40 -196 82l53 84c37 -38 106 -74 181 -74c80 0 113 34 113 74c0 112 -329 38 -329 242c0 92 86 164 212 164
c92 0 164 -30 216 -79l-53 -78c-42 42 -107 64 -164 64c-60 0 -99 -29 -99 -68c0 -98 329 -31 329 -241c0 -96 -70 -165 -209 -171l-16 -42c10 7 23 11 36 11c37 0 66 -28 66 -69c0 -51 -48 -83 -108 -83z" />
    <glyph glyph-name="Scircumflex.smcp" unicode="&#xf69a;" horiz-adv-x="511" 
d="M254 -12c-101 0 -183 37 -230 84l53 84c37 -38 106 -74 181 -74c80 0 113 34 113 74c0 112 -329 38 -329 242c0 92 86 164 212 164c92 0 164 -30 216 -79l-53 -78c-42 42 -107 64 -164 64c-60 0 -99 -29 -99 -68c0 -98 329 -31 329 -241c0 -100 -77 -172 -229 -172z
M401 606h-66l-78 97l-74 -97h-67l93 144h96z" />
    <glyph glyph-name="Scommaaccent.smcp" unicode="&#xf69b;" horiz-adv-x="511" 
d="M254 -12c-101 0 -183 37 -230 84l53 84c37 -38 106 -74 181 -74c80 0 113 34 113 74c0 112 -329 38 -329 242c0 92 86 164 212 164c92 0 164 -30 216 -79l-53 -78c-42 42 -107 64 -164 64c-60 0 -99 -29 -99 -68c0 -98 329 -31 329 -241c0 -100 -77 -172 -229 -172z
M321 -138c0 -58 -33 -111 -78 -143l-38 31c28 17 56 53 60 82c-1 -1 -8 -2 -13 -2c-28 0 -49 21 -49 51c0 31 25 56 55 56c33 0 63 -27 63 -75z" />
    <glyph glyph-name="Tbar.smcp" unicode="&#xf69c;" horiz-adv-x="480" 
d="M295 0h-109v221h-108v62h108v172h-163v95h434v-95h-162v-172h110v-62h-110v-221z" />
    <glyph glyph-name="Tcaron.smcp" unicode="&#xf69d;" horiz-adv-x="480" 
d="M295 0h-109v455h-163v95h434v-95h-162v-455zM290 606h-96l-96 144h67l77 -96l75 96h66z" />
    <glyph glyph-name="Tcommaaccent.smcp" unicode="&#xf69e;" horiz-adv-x="480" 
d="M295 0h-109v455h-163v95h434v-95h-162v-455zM302 -138c0 -58 -33 -111 -78 -143l-38 31c28 17 56 53 60 82c-1 -1 -8 -2 -13 -2c-28 0 -49 21 -49 51c0 31 25 56 55 56c33 0 63 -27 63 -75z" />
    <glyph glyph-name="Ubreve.smcp" unicode="&#xf69f;" horiz-adv-x="636" 
d="M318 -12c-167 0 -250 92 -250 228v334h110v-325c0 -85 50 -141 140 -141s140 56 140 141v325h110v-334c0 -136 -82 -228 -250 -228zM493 687c-40 -54 -103 -88 -175 -88c-71 0 -135 34 -176 88l49 41c28 -40 73 -67 127 -67s98 25 128 67z" />
    <glyph glyph-name="Uhungarumlaut.smcp" unicode="&#xf6a0;" horiz-adv-x="636" 
d="M318 -12c-167 0 -250 92 -250 228v334h110v-325c0 -85 50 -141 140 -141s140 56 140 141v325h110v-334c0 -136 -82 -228 -250 -228zM380 750l-115 -144h-63l90 144h88zM526 750l-115 -144h-63l90 144h88z" />
    <glyph glyph-name="Umacron.smcp" unicode="&#xf6a1;" horiz-adv-x="636" 
d="M318 -12c-167 0 -250 92 -250 228v334h110v-325c0 -85 50 -141 140 -141s140 56 140 141v325h110v-334c0 -136 -82 -228 -250 -228zM501 626h-363v62h363v-62z" />
    <glyph glyph-name="Uogonek.smcp" unicode="&#xf6a2;" horiz-adv-x="636" 
d="M318 -12c-167 0 -250 92 -250 228v334h110v-325c0 -85 50 -141 140 -141s140 56 140 141v325h110v-334c0 -108 -51 -187 -155 -216c-49 -24 -74 -55 -74 -93c0 -32 18 -46 41 -46c24 0 38 15 46 38l46 -27c-17 -32 -45 -58 -92 -58c-50 0 -96 26 -96 89c0 32 13 61 36 85
h-2z" />
    <glyph glyph-name="Uring.smcp" unicode="&#xf6a3;" horiz-adv-x="636" 
d="M318 -12c-167 0 -250 92 -250 228v334h110v-325c0 -85 50 -141 140 -141s140 56 140 141v325h110v-334c0 -136 -82 -228 -250 -228zM321 601c-56 0 -103 46 -103 102s47 103 103 103s101 -47 101 -103s-45 -102 -101 -102zM321 651c28 0 51 24 51 52c0 29 -23 52 -51 52
c-29 0 -52 -23 -52 -52c0 -28 23 -52 52 -52z" />
    <glyph glyph-name="Utilde.smcp" unicode="&#xf6a4;" horiz-adv-x="636" 
d="M318 -12c-167 0 -250 92 -250 228v334h110v-325c0 -85 50 -141 140 -141s140 56 140 141v325h110v-334c0 -136 -82 -228 -250 -228zM376 604c-69 0 -77 78 -119 78c-23 0 -41 -22 -41 -72h-58c0 82 36 134 103 134c70 0 77 -78 119 -78c23 0 42 22 42 72h57
c0 -82 -36 -134 -103 -134z" />
    <glyph glyph-name="Wcircumflex.smcp" unicode="&#xf6a6;" horiz-adv-x="783" 
d="M535 606h-66l-78 97l-74 -97h-67l93 144h96zM614 0h-114l-109 390l-107 -390h-115l-165 550h122l107 -405l115 405h87l115 -405l108 405h121z" />
    <glyph glyph-name="Ycircumflex.smcp" unicode="&#xf6a9;" horiz-adv-x="557" 
d="M334 0h-108v229l-226 321h125l156 -228l153 228h123l-223 -321v-229zM424 606h-66l-78 97l-74 -97h-67l93 144h96z" />
    <glyph glyph-name="Zacute.smcp" unicode="&#xf6ab;" horiz-adv-x="521" 
d="M483 0h-445v80l289 374h-289v96h439v-80l-290 -374h296v-96zM424 750l-165 -144h-75l140 144h100z" />
    <glyph glyph-name="Zdotaccent.smcp" unicode="&#xf6ac;" horiz-adv-x="521" 
d="M483 0h-445v80l289 374h-289v96h439v-80l-290 -374h296v-96zM269 621c-32 0 -59 26 -59 59c0 32 27 59 59 59s59 -27 59 -59c0 -33 -27 -59 -59 -59z" />
    <glyph glyph-name="Idotaccent.smcp" unicode="&#xf6ad;" horiz-adv-x="221" 
d="M167 0h-110v550h110v-550zM112 621c-32 0 -59 26 -59 59c0 32 27 59 59 59s59 -27 59 -59c0 -33 -27 -59 -59 -59z" />
    <glyph glyph-name="parenleft.case" unicode="&#xf6ae;" horiz-adv-x="276" 
d="M259 -59l-65 -50c-95 115 -152 281 -152 442s57 327 152 442l65 -49c-67 -124 -103 -235 -103 -393c0 -156 36 -269 103 -392z" />
    <glyph glyph-name="parenright.case" unicode="&#xf6af;" horiz-adv-x="277" 
d="M18 -59l65 -50c94 115 151 281 151 442s-57 327 -151 442l-65 -49c66 -124 102 -235 102 -393c0 -156 -36 -269 -102 -392z" />
    <glyph glyph-name="bracketleft.case" unicode="&#xf6b0;" horiz-adv-x="265" 
d="M247 -100h-203v868h203v-72h-125v-724h125v-72z" />
    <glyph glyph-name="bracketright.case" unicode="&#xf6b1;" horiz-adv-x="265" 
d="M221 -100h-203v72h125v724h-125v72h203v-868z" />
    <glyph glyph-name="braceleft.case" unicode="&#xf6b2;" horiz-adv-x="277" 
d="M260 -100h-61c-73 0 -142 56 -142 148v187c0 37 -17 68 -52 68v62c35 0 52 31 52 68v186c0 92 69 149 142 149h61v-72h-61c-35 0 -65 -30 -65 -76v-197c0 -42 -12 -75 -45 -89c33 -14 45 -47 45 -89v-196c0 -45 30 -77 65 -77h61v-72z" />
    <glyph glyph-name="braceright.case" unicode="&#xf6b3;" horiz-adv-x="277" 
d="M17 -100v72h61c35 0 65 32 65 77v196c0 42 12 75 45 89c-33 14 -45 47 -45 89v197c0 46 -30 76 -65 76h-61v72h61c73 0 142 -57 142 -149v-186c0 -37 17 -68 52 -68v-62c-35 0 -52 -31 -52 -68v-187c0 -92 -69 -148 -142 -148h-61z" />
    <glyph glyph-name="exclamdown.case" unicode="&#xf6b4;" horiz-adv-x="244" 
d="M58 0l18 463h91l19 -463h-128zM52 608c0 38 32 70 70 70s69 -32 69 -70c0 -37 -31 -69 -69 -69s-70 32 -70 69z" />
    <glyph glyph-name="questiondown.case" unicode="&#xf6b5;" horiz-adv-x="459" 
d="M270 470c24 -23 35 -53 35 -86c0 -122 -161 -134 -161 -220c0 -39 31 -72 95 -72c62 0 106 28 139 70l68 -75c-51 -62 -128 -99 -218 -99c-126 0 -203 67 -203 157c0 149 178 161 178 250c0 16 -8 35 -22 45zM234 678c38 0 70 -32 70 -70s-32 -70 -70 -70s-70 32 -70 70
s32 70 70 70z" />
    <glyph glyph-name="guillemotleft.case" unicode="&#xf6b6;" horiz-adv-x="490" 
d="M460 162h-100l-160 180l160 177h100l-160 -177zM290 162h-100l-160 180l160 177h100l-160 -177z" />
    <glyph glyph-name="guillemotright.case" unicode="&#xf6b7;" horiz-adv-x="490" 
d="M290 342l-160 -180h-100l160 180l-160 177h100zM460 342l-160 -180h-100l160 180l-160 177h100z" />
    <glyph glyph-name="guilsinglleft.case" unicode="&#xf6b8;" horiz-adv-x="320" 
d="M290 162h-100l-160 180l160 177h100l-160 -177z" />
    <glyph glyph-name="guilsinglright.case" unicode="&#xf6b9;" horiz-adv-x="320" 
d="M290 342l-160 -180h-100l160 180l-160 177h100z" />
    <glyph glyph-name="hyphen.case" unicode="&#xf6ba;" horiz-adv-x="300" 
d="M270 296h-240v90h240v-90z" />
    <glyph glyph-name="endash.case" unicode="&#xf6bb;" horiz-adv-x="593" 
d="M563 296h-533v90h533v-90z" />
    <glyph glyph-name="emdash.case" unicode="&#xf6bc;" horiz-adv-x="833" 
d="M803 296h-773v90h773v-90z" />
    <glyph glyph-name="periodcentered.case" unicode="&#xf6bd;" horiz-adv-x="246" 
d="M192 343c0 -38 -31 -70 -69 -70s-70 32 -70 70c0 37 32 69 70 69s69 -32 69 -69z" />
    <glyph glyph-name="bullet.case" unicode="&#xf6be;" horiz-adv-x="358" 
d="M294 341c0 -62 -51 -113 -114 -113s-114 51 -114 113c0 63 51 114 114 114s114 -51 114 -114z" />
    <glyph glyph-name="cent.case" unicode="&#xf6bf;" horiz-adv-x="498" 
d="M246 -9v91c-124 18 -207 119 -207 251c0 131 83 231 207 250v73h78v-72c73 -9 119 -44 149 -84l-69 -63c-21 29 -48 46 -80 53v-315c32 7 59 25 80 55l69 -65c-30 -39 -76 -75 -149 -84v-90h-78zM147 333c0 -76 38 -135 99 -154v307c-61 -20 -99 -77 -99 -153z" />
    <glyph glyph-name="commaaccent" unicode="&#xf6c3;" horiz-adv-x="245" 
d="M184 -138c0 -58 -33 -111 -78 -143l-38 31c28 17 56 53 60 82c-1 -1 -8 -2 -13 -2c-28 0 -49 21 -49 51c0 31 25 56 55 56c33 0 63 -27 63 -75z" />
    <glyph glyph-name="one.tnum" unicode="&#xf6dc;" horiz-adv-x="613" 
d="M428 0h-117v516l-109 -114l-68 71l192 194h102v-667z" />
    <glyph glyph-name="Lslash.smcp" unicode="&#xf6f9;" horiz-adv-x="481" 
d="M10 154v97l75 43v256h110v-192l85 49v-97l-85 -49v-166h252v-95h-362v197z" />
    <glyph glyph-name="OE.smcp" unicode="&#xf6fa;" horiz-adv-x="940" 
d="M894 0h-402v81c-41 -63 -105 -93 -182 -93c-162 0 -271 123 -271 287c0 165 109 287 271 287c75 0 141 -30 182 -92v80h402v-95h-292v-127h286v-95h-286v-138h292v-95zM492 197v158c-28 78 -93 111 -161 111c-111 0 -181 -82 -181 -191c0 -108 70 -191 181 -191
c71 0 133 35 161 113z" />
    <glyph glyph-name="Scaron.smcp" unicode="&#xf6fd;" horiz-adv-x="511" 
d="M254 -12c-101 0 -183 37 -230 84l53 84c37 -38 106 -74 181 -74c80 0 113 34 113 74c0 112 -329 38 -329 242c0 92 86 164 212 164c92 0 164 -30 216 -79l-53 -78c-42 42 -107 64 -164 64c-60 0 -99 -29 -99 -68c0 -98 329 -31 329 -241c0 -100 -77 -172 -229 -172z
M308 606h-96l-96 144h67l77 -96l75 96h66z" />
    <glyph glyph-name="Zcaron.smcp" unicode="&#xf6ff;" horiz-adv-x="521" 
d="M483 0h-445v80l289 374h-289v96h439v-80l-290 -374h296v-96zM307 606h-96l-96 144h67l77 -96l75 96h66z" />
    <glyph glyph-name="exclam.smcp" unicode="&#xf721;" horiz-adv-x="196" 
d="M156 550l-16 -361h-83l-17 361h116zM168 59c0 -37 -32 -70 -70 -70s-69 33 -69 70c0 38 31 70 69 70s70 -32 70 -70z" />
    <glyph glyph-name="dollar.onum" unicode="&#xf724;" horiz-adv-x="511" 
d="M220 -74v64c-86 7 -155 40 -196 82l53 84c30 -32 83 -62 143 -71v154c-87 21 -178 51 -178 159c0 83 71 151 178 162v68h79v-69c71 -8 128 -36 171 -76l-53 -78c-31 31 -75 51 -118 59v-137c88 -21 184 -54 184 -167c0 -90 -62 -157 -184 -170v-64h-79zM371 156
c0 34 -30 51 -72 63v-134c50 10 72 38 72 71zM154 401c0 -28 27 -43 66 -54v119c-41 -9 -66 -34 -66 -65z" />
    <glyph glyph-name="ampersand.smcp" unicode="&#xf726;" horiz-adv-x="563" 
d="M551 0h-126c-16 14 -34 30 -51 47c-46 -36 -99 -58 -162 -58c-107 0 -188 58 -188 160c0 85 58 128 124 161c-25 41 -40 80 -40 119c0 76 69 133 159 133c78 0 145 -41 145 -116c0 -84 -71 -121 -142 -153c17 -22 36 -43 55 -63c20 -23 38 -43 55 -62c24 35 43 75 55 114
l79 -34c-22 -51 -48 -98 -78 -138c34 -34 70 -68 115 -110zM223 63c35 0 67 15 97 38c-26 27 -50 53 -68 74c-24 27 -45 52 -64 77c-38 -23 -64 -51 -64 -95c0 -54 42 -94 99 -94zM202 427c0 -24 11 -52 28 -80c54 25 97 50 97 95c0 33 -24 51 -56 51c-41 0 -69 -29 -69 -66
z" />
    <glyph glyph-name="zero.onum" unicode="&#xf730;" horiz-adv-x="617" 
d="M575 275c0 -147 -83 -287 -266 -287c-184 0 -267 140 -267 287c0 148 83 287 267 287c183 0 266 -139 266 -287zM456 275c0 97 -45 183 -147 183s-148 -86 -148 -183c0 -96 46 -183 148 -183c101 0 147 87 147 183z" />
    <glyph glyph-name="one.onum" unicode="&#xf731;" horiz-adv-x="380" 
d="M309 0h-117v399l-109 -114l-68 71l192 194h102v-550z" />
    <glyph glyph-name="two.onum" unicode="&#xf732;" horiz-adv-x="581" 
d="M508 0h-453v93c251 92 345 190 345 269c0 58 -51 96 -115 96c-73 0 -137 -28 -181 -79l-68 76c59 72 157 107 251 107c138 0 232 -70 232 -181c0 -112 -116 -220 -252 -278h241v-103z" />
    <glyph glyph-name="three.onum" unicode="&#xf733;" horiz-adv-x="568" 
d="M270 -129c-118 0 -206 48 -252 108l64 77c43 -50 113 -81 184 -81c88 0 139 41 139 102c0 66 -52 95 -148 95c-28 0 -66 -1 -76 -2v106c11 -1 50 -1 76 -1c79 0 138 27 138 88s-61 93 -135 93c-69 0 -125 -25 -173 -74l-60 73c52 61 133 105 244 105
c144 0 240 -68 240 -179c0 -90 -76 -142 -144 -153c64 -7 155 -59 155 -162c0 -114 -97 -195 -252 -195z" />
    <glyph glyph-name="four.onum" unicode="&#xf734;" horiz-adv-x="580" 
d="M552 39h-89v-156h-117v156h-318v94l274 417h161v-408h89v-103zM346 142v303l-203 -303h203z" />
    <glyph glyph-name="five.onum" unicode="&#xf735;" horiz-adv-x="600" 
d="M304 -129c-114 0 -193 40 -247 103l67 81c44 -52 105 -80 179 -80c85 0 137 52 137 118c0 71 -52 118 -134 118c-56 0 -103 -17 -146 -57l-83 24v372h437v-103h-320v-192c33 31 87 57 151 57c113 0 214 -78 214 -215c0 -138 -106 -226 -255 -226z" />
    <glyph glyph-name="six.onum" unicode="&#xf736;" horiz-adv-x="601" 
d="M317 -12c-196 0 -275 159 -275 345c0 192 101 344 294 344c82 0 146 -29 191 -74l-54 -88c-35 36 -74 58 -137 58c-112 0 -176 -103 -176 -220v-19c31 45 101 94 179 94c120 0 224 -74 224 -216c0 -123 -97 -224 -246 -224zM310 92c88 0 134 63 134 116
c0 82 -64 119 -136 119c-57 0 -113 -30 -146 -78c6 -72 46 -157 148 -157z" />
    <glyph glyph-name="seven.onum" unicode="&#xf737;" horiz-adv-x="532" 
d="M250 -117h-129l252 564h-346v103h481v-81z" />
    <glyph glyph-name="eight.onum" unicode="&#xf738;" horiz-adv-x="596" 
d="M298 -12c-137 0 -256 64 -256 184c0 84 69 145 150 172c-75 24 -139 74 -139 158c0 124 127 175 245 175s245 -51 245 -175c0 -84 -64 -134 -139 -158c81 -27 150 -88 150 -172c0 -120 -120 -184 -256 -184zM298 391c41 7 126 31 126 93c0 57 -54 89 -126 89
s-126 -32 -126 -89c0 -62 86 -86 126 -93zM298 92c74 0 137 36 137 95c0 69 -96 99 -137 105c-42 -6 -137 -36 -137 -105c0 -59 61 -95 137 -95z" />
    <glyph glyph-name="nine.onum" unicode="&#xf739;" horiz-adv-x="601" 
d="M266 -128c-83 0 -147 30 -192 74l55 89c35 -37 73 -59 137 -59c121 0 176 111 176 220c0 6 0 13 -1 19c-30 -45 -100 -93 -179 -93c-120 0 -223 73 -223 215c0 124 97 224 246 224c196 0 275 -159 275 -344c0 -193 -101 -345 -294 -345zM294 222c57 0 112 31 146 79
c-7 72 -46 156 -149 156c-88 0 -134 -62 -134 -116c0 -82 64 -119 137 -119z" />
    <glyph glyph-name="question.smcp" unicode="&#xf73f;" horiz-adv-x="396" 
d="M378 436c0 -118 -154 -132 -154 -196c0 -12 5 -25 21 -37l-82 -26c-23 21 -31 46 -31 66c0 94 139 105 139 171c0 33 -29 57 -82 57c-58 0 -99 -24 -129 -60l-53 66c46 53 114 84 192 84c111 0 179 -56 179 -125zM264 60c0 -38 -32 -71 -70 -71s-70 33 -70 71
c0 37 32 69 70 69s70 -32 70 -69z" />
    <glyph glyph-name="A.smcp" unicode="&#xf761;" horiz-adv-x="586" 
d="M228 550h131l227 -550h-122l-42 104h-257l-42 -104h-123zM390 199l-96 240l-97 -240h193z" />
    <glyph glyph-name="B.smcp" unicode="&#xf762;" horiz-adv-x="573" 
d="M362 0h-294v550h287c107 0 167 -63 167 -141c0 -65 -43 -111 -94 -125c60 -14 106 -69 106 -134c0 -86 -61 -150 -172 -150zM343 95c48 0 79 26 79 69c0 37 -28 69 -79 69h-165v-138h165zM339 329c45 0 71 27 71 63c0 38 -26 63 -71 63h-161v-126h161z" />
    <glyph glyph-name="C.smcp" unicode="&#xf763;" horiz-adv-x="584" 
d="M336 -12c-170 0 -297 118 -297 288c0 169 127 286 297 286c110 0 185 -56 229 -128l-90 -46c-27 47 -80 78 -139 78c-107 0 -186 -80 -186 -190s79 -192 186 -192c59 0 113 32 139 78l91 -45c-45 -72 -121 -129 -230 -129z" />
    <glyph glyph-name="D.smcp" unicode="&#xf764;" horiz-adv-x="622" 
d="M286 0h-218v550h218c181 0 297 -114 297 -275c0 -162 -116 -275 -297 -275zM286 95c121 0 186 82 186 180c0 100 -61 180 -186 180h-108v-360h108z" />
    <glyph glyph-name="E.smcp" unicode="&#xf765;" horiz-adv-x="515" 
d="M469 0h-401v550h401v-95h-291v-127h286v-95h-286v-138h291v-95z" />
    <glyph glyph-name="F.smcp" unicode="&#xf766;" horiz-adv-x="501" 
d="M178 0h-110v550h401v-95h-291v-127h286v-95h-286v-233z" />
    <glyph glyph-name="G.smcp" unicode="&#xf767;" horiz-adv-x="620" 
d="M337 -12c-167 0 -298 115 -298 287c0 173 131 287 298 287c103 0 179 -49 226 -110l-88 -54c-30 40 -79 68 -138 68c-108 0 -187 -80 -187 -191c0 -110 79 -191 187 -191c57 0 100 24 125 47v79h-148v90h257v-211c-58 -61 -138 -101 -234 -101z" />
    <glyph glyph-name="H.smcp" unicode="&#xf768;" horiz-adv-x="644" 
d="M576 0h-108v235h-290v-235h-110v550h110v-220h290v220h108v-550z" />
    <glyph glyph-name="I.smcp" unicode="&#xf769;" horiz-adv-x="246" 
d="M178 0h-110v550h110v-550z" />
    <glyph glyph-name="J.smcp" unicode="&#xf76a;" horiz-adv-x="428" 
d="M158 -12c-59 0 -112 20 -152 63l46 82c23 -27 56 -49 98 -49c62 0 101 39 101 98v368h109v-377c0 -127 -84 -185 -202 -185z" />
    <glyph glyph-name="K.smcp" unicode="&#xf76b;" horiz-adv-x="553" 
d="M546 0h-133l-190 227l-45 -51v-176h-110v550h110v-251l217 251h134l-235 -259z" />
    <glyph glyph-name="L.smcp" unicode="&#xf76c;" horiz-adv-x="464" 
d="M430 0h-362v550h110v-455h252v-95z" />
    <glyph glyph-name="M.smcp" unicode="&#xf76d;" horiz-adv-x="741" 
d="M673 0h-109v403l-169 -403h-49l-168 403v-403h-110v550h147l155 -375l156 375h147v-550z" />
    <glyph glyph-name="N.smcp" unicode="&#xf76e;" horiz-adv-x="642" 
d="M574 0h-111l-286 381v-381h-109v550h117l280 -370v370h109v-550z" />
    <glyph glyph-name="O.smcp" unicode="&#xf76f;" horiz-adv-x="658" 
d="M329 -12c-173 0 -290 123 -290 287s117 287 290 287s291 -123 291 -287s-118 -287 -291 -287zM329 84c109 0 179 83 179 191c0 109 -70 191 -179 191s-179 -82 -179 -191c0 -108 70 -191 179 -191z" />
    <glyph glyph-name="P.smcp" unicode="&#xf770;" horiz-adv-x="541" 
d="M178 0h-110v550h260c122 0 188 -81 188 -175s-62 -175 -188 -175h-150v-200zM316 295c58 0 89 34 89 80c0 47 -32 80 -89 80h-138v-160h138z" />
    <glyph glyph-name="Q.smcp" unicode="&#xf771;" horiz-adv-x="658" 
d="M329 -12c-173 0 -290 123 -290 287s117 287 290 287s291 -123 291 -287c0 -81 -28 -151 -78 -202l45 -51l-66 -54l-47 54c-42 -22 -91 -34 -145 -34zM329 84c28 0 54 5 77 16l-64 73l65 54l64 -74c24 33 37 75 37 122c0 109 -70 191 -179 191s-179 -82 -179 -191
c0 -108 70 -191 179 -191z" />
    <glyph glyph-name="R.smcp" unicode="&#xf772;" horiz-adv-x="562" 
d="M522 0h-125l-124 200h-95v-200h-110v550h260c120 0 189 -78 189 -175c0 -98 -63 -155 -136 -165zM316 295c58 0 89 33 89 80s-32 80 -89 80h-138v-160h138z" />
    <glyph glyph-name="S.smcp" unicode="&#xf773;" horiz-adv-x="511" 
d="M254 -12c-101 0 -183 37 -230 84l53 84c37 -38 106 -74 181 -74c80 0 113 34 113 74c0 112 -329 38 -329 242c0 92 86 164 212 164c92 0 164 -30 216 -79l-53 -78c-42 42 -107 64 -164 64c-60 0 -99 -29 -99 -68c0 -98 329 -31 329 -241c0 -100 -77 -172 -229 -172z" />
    <glyph glyph-name="T.smcp" unicode="&#xf774;" horiz-adv-x="480" 
d="M295 0h-109v455h-163v95h434v-95h-162v-455z" />
    <glyph glyph-name="U.smcp" unicode="&#xf775;" horiz-adv-x="636" 
d="M318 -12c-167 0 -250 92 -250 228v334h110v-325c0 -85 50 -141 140 -141s140 56 140 141v325h110v-334c0 -136 -82 -228 -250 -228z" />
    <glyph glyph-name="V.smcp" unicode="&#xf776;" horiz-adv-x="586" 
d="M359 0h-131l-228 550h124l170 -431l171 431h121z" />
    <glyph glyph-name="W.smcp" unicode="&#xf777;" horiz-adv-x="783" 
d="M614 0h-114l-109 390l-107 -390h-115l-165 550h122l107 -405l115 405h87l115 -405l108 405h121z" />
    <glyph glyph-name="X.smcp" unicode="&#xf778;" horiz-adv-x="577" 
d="M576 0h-129l-159 209l-157 -209h-129l216 282l-203 268h129l144 -195l145 195h129l-202 -267z" />
    <glyph glyph-name="Y.smcp" unicode="&#xf779;" horiz-adv-x="557" 
d="M334 0h-108v229l-226 321h125l156 -228l153 228h123l-223 -321v-229z" />
    <glyph glyph-name="Z.smcp" unicode="&#xf77a;" horiz-adv-x="521" 
d="M483 0h-445v80l289 374h-289v96h439v-80l-290 -374h296v-96z" />
    <glyph glyph-name="exclamdown.smcp" unicode="&#xf7a1;" horiz-adv-x="196" 
d="M40 0l16 361h83l17 -361h-116zM28 491c0 37 32 70 70 70s69 -33 69 -70c0 -38 -31 -70 -69 -70s-70 32 -70 70z" />
    <glyph glyph-name="questiondown.smcp" unicode="&#xf7b8;" horiz-adv-x="396" 
d="M18 114c0 118 154 132 154 196c0 12 -5 25 -21 37l82 26c23 -21 31 -46 31 -66c0 -94 -139 -105 -139 -171c0 -33 29 -57 82 -57c58 0 99 24 129 60l53 -66c-46 -53 -114 -84 -192 -84c-111 0 -179 56 -179 125zM132 490c0 38 32 71 70 71s70 -33 70 -71
c0 -37 -32 -69 -70 -69s-70 32 -70 69z" />
    <glyph glyph-name="Agrave.smcp" unicode="&#xf7e0;" horiz-adv-x="586" 
d="M228 550h131l227 -550h-122l-42 104h-257l-42 -104h-123zM390 199l-96 240l-97 -240h193zM369 606h-75l-165 144h100z" />
    <glyph glyph-name="Aacute.smcp" unicode="&#xf7e1;" horiz-adv-x="586" 
d="M228 550h131l227 -550h-122l-42 104h-257l-42 -104h-123zM390 199l-96 240l-97 -240h193zM460 750l-165 -144h-75l140 144h100z" />
    <glyph glyph-name="Acircumflex.smcp" unicode="&#xf7e2;" horiz-adv-x="586" 
d="M228 550h131l227 -550h-122l-42 104h-257l-42 -104h-123zM390 199l-96 240l-97 -240h193zM437 606h-66l-78 97l-74 -97h-67l93 144h96z" />
    <glyph glyph-name="Atilde.smcp" unicode="&#xf7e3;" horiz-adv-x="586" 
d="M228 550h131l227 -550h-122l-42 104h-257l-42 -104h-123zM390 199l-96 240l-97 -240h193zM352 604c-69 0 -77 78 -119 78c-23 0 -41 -22 -41 -72h-58c0 82 36 134 103 134c70 0 77 -78 119 -78c23 0 42 22 42 72h57c0 -82 -36 -134 -103 -134z" />
    <glyph glyph-name="Adieresis.smcp" unicode="&#xf7e4;" horiz-adv-x="586" 
d="M228 550h131l227 -550h-122l-42 104h-257l-42 -104h-123zM390 199l-96 240l-97 -240h193zM457 668c0 -32 -26 -58 -59 -58c-32 0 -58 26 -58 58c0 33 26 59 58 59c33 0 59 -26 59 -59zM248 668c0 -32 -26 -58 -59 -58c-32 0 -59 26 -59 58c0 33 27 59 59 59
c33 0 59 -26 59 -59z" />
    <glyph glyph-name="Aring.smcp" unicode="&#xf7e5;" horiz-adv-x="586" 
d="M228 550h131l227 -550h-122l-42 104h-257l-42 -104h-123zM390 199l-96 240l-97 -240h193zM295 601c-56 0 -103 46 -103 102s47 103 103 103s101 -47 101 -103s-45 -102 -101 -102zM295 651c28 0 51 24 51 52c0 29 -23 52 -51 52c-29 0 -52 -23 -52 -52
c0 -28 23 -52 52 -52z" />
    <glyph glyph-name="AE.smcp" unicode="&#xf7e6;" horiz-adv-x="835" 
d="M789 0h-401v104h-202l-63 -104h-124l347 550h443v-95h-292v-127h286v-95h-286v-138h292v-95zM388 199v240l-149 -240h149z" />
    <glyph glyph-name="Ccedilla.smcp" unicode="&#xf7e7;" horiz-adv-x="584" 
d="M334 -194c-45 0 -85 15 -106 31l23 46c25 -20 53 -29 81 -29c29 0 55 12 55 36c0 19 -11 30 -32 30c-14 0 -27 -6 -35 -15l-40 23l22 62c-153 14 -263 127 -263 286c0 169 127 286 297 286c110 0 185 -56 229 -128l-90 -46c-27 47 -80 78 -139 78
c-107 0 -186 -80 -186 -190s79 -192 186 -192c59 0 113 32 139 78l91 -45c-42 -68 -112 -121 -210 -128l-16 -42c10 7 23 11 36 11c37 0 66 -28 66 -69c0 -51 -48 -83 -108 -83z" />
    <glyph glyph-name="Egrave.smcp" unicode="&#xf7e8;" horiz-adv-x="515" 
d="M469 0h-401v550h401v-95h-291v-127h286v-95h-286v-138h291v-95zM346 606h-75l-165 144h100z" />
    <glyph glyph-name="Eacute.smcp" unicode="&#xf7e9;" horiz-adv-x="515" 
d="M469 0h-401v550h401v-95h-291v-127h286v-95h-286v-138h291v-95zM437 750l-165 -144h-75l140 144h100z" />
    <glyph glyph-name="Ecircumflex.smcp" unicode="&#xf7ea;" horiz-adv-x="515" 
d="M469 0h-401v550h401v-95h-291v-127h286v-95h-286v-138h291v-95zM415 606h-66l-78 97l-74 -97h-67l93 144h96z" />
    <glyph glyph-name="Edieresis.smcp" unicode="&#xf7eb;" horiz-adv-x="515" 
d="M469 0h-401v550h401v-95h-291v-127h286v-95h-286v-138h291v-95zM432 668c0 -32 -26 -58 -59 -58c-32 0 -58 26 -58 58c0 33 26 59 58 59c33 0 59 -26 59 -59zM223 668c0 -32 -26 -58 -59 -58c-32 0 -59 26 -59 58c0 33 27 59 59 59c33 0 59 -26 59 -59z" />
    <glyph glyph-name="Igrave.smcp" unicode="&#xf7ec;" horiz-adv-x="242" 
d="M178 0h-110v550h110v-550zM196 606h-75l-165 144h100z" />
    <glyph glyph-name="Iacute.smcp" unicode="&#xf7ed;" horiz-adv-x="242" 
d="M178 0h-110v550h110v-550zM287 750l-165 -144h-75l140 144h100z" />
    <glyph glyph-name="Icircumflex.smcp" unicode="&#xf7ee;" horiz-adv-x="242" 
d="M178 0h-110v550h110v-550zM264 606h-66l-78 97l-74 -97h-67l93 144h96z" />
    <glyph glyph-name="Idieresis.smcp" unicode="&#xf7ef;" horiz-adv-x="242" 
d="M178 0h-110v550h110v-550zM285 668c0 -32 -26 -58 -59 -58c-32 0 -58 26 -58 58c0 33 26 59 58 59c33 0 59 -26 59 -59zM76 668c0 -32 -26 -58 -59 -58c-32 0 -59 26 -59 58c0 33 27 59 59 59c33 0 59 -26 59 -59z" />
    <glyph glyph-name="Eth.smcp" unicode="&#xf7f0;" horiz-adv-x="631" 
d="M285 0h-218v239h-57v72h57v239h218c181 0 297 -114 297 -275c0 -162 -116 -275 -297 -275zM299 239h-122v-144h108c121 0 186 82 186 180c0 100 -61 180 -186 180h-108v-144h122v-72z" />
    <glyph glyph-name="Ntilde.smcp" unicode="&#xf7f1;" horiz-adv-x="642" 
d="M574 0h-111l-286 381v-381h-109v550h117l280 -370v370h109v-550zM378 604c-69 0 -77 78 -119 78c-23 0 -41 -22 -41 -72h-58c0 82 36 134 103 134c70 0 77 -78 119 -78c23 0 42 22 42 72h57c0 -82 -36 -134 -103 -134z" />
    <glyph glyph-name="Ograve.smcp" unicode="&#xf7f2;" horiz-adv-x="658" 
d="M329 -12c-173 0 -290 123 -290 287s117 287 290 287s291 -123 291 -287s-118 -287 -291 -287zM329 84c109 0 179 83 179 191c0 109 -70 191 -179 191s-179 -82 -179 -191c0 -108 70 -191 179 -191zM404 606h-75l-165 144h100z" />
    <glyph glyph-name="Oacute.smcp" unicode="&#xf7f3;" horiz-adv-x="658" 
d="M329 -12c-173 0 -290 123 -290 287s117 287 290 287s291 -123 291 -287s-118 -287 -291 -287zM329 84c109 0 179 83 179 191c0 109 -70 191 -179 191s-179 -82 -179 -191c0 -108 70 -191 179 -191zM496 750l-165 -144h-75l140 144h100z" />
    <glyph glyph-name="Ocircumflex.smcp" unicode="&#xf7f4;" horiz-adv-x="658" 
d="M329 -12c-173 0 -290 123 -290 287s117 287 290 287s291 -123 291 -287s-118 -287 -291 -287zM329 84c109 0 179 83 179 191c0 109 -70 191 -179 191s-179 -82 -179 -191c0 -108 70 -191 179 -191zM474 606h-66l-78 97l-74 -97h-67l93 144h96z" />
    <glyph glyph-name="Otilde.smcp" unicode="&#xf7f5;" horiz-adv-x="658" 
d="M329 -12c-173 0 -290 123 -290 287s117 287 290 287s291 -123 291 -287s-118 -287 -291 -287zM329 84c109 0 179 83 179 191c0 109 -70 191 -179 191s-179 -82 -179 -191c0 -108 70 -191 179 -191zM390 604c-69 0 -77 78 -119 78c-23 0 -41 -22 -41 -72h-58
c0 82 36 134 103 134c70 0 77 -78 119 -78c23 0 42 22 42 72h57c0 -82 -36 -134 -103 -134z" />
    <glyph glyph-name="Odieresis.smcp" unicode="&#xf7f6;" horiz-adv-x="658" 
d="M329 -12c-173 0 -290 123 -290 287s117 287 290 287s291 -123 291 -287s-118 -287 -291 -287zM329 84c109 0 179 83 179 191c0 109 -70 191 -179 191s-179 -82 -179 -191c0 -108 70 -191 179 -191zM495 668c0 -32 -26 -58 -59 -58c-32 0 -58 26 -58 58c0 33 26 59 58 59
c33 0 59 -26 59 -59zM286 668c0 -32 -26 -58 -59 -58c-32 0 -59 26 -59 58c0 33 27 59 59 59c33 0 59 -26 59 -59z" />
    <glyph glyph-name="Oslash.smcp" unicode="&#xf7f8;" horiz-adv-x="658" 
d="M329 -12c-57 0 -108 13 -150 36l-19 -24h-87l50 66c-53 51 -84 124 -84 209c0 164 117 287 290 287c55 0 105 -13 147 -35l18 23h87l-49 -64c56 -51 88 -126 88 -211c0 -164 -118 -287 -291 -287zM329 84c109 0 179 83 179 191c0 49 -15 93 -41 126l-226 -296
c25 -14 55 -21 88 -21zM150 275c0 -48 13 -91 38 -124l226 295c-24 13 -53 20 -85 20c-109 0 -179 -82 -179 -191z" />
    <glyph glyph-name="Ugrave.smcp" unicode="&#xf7f9;" horiz-adv-x="636" 
d="M318 -12c-167 0 -250 92 -250 228v334h110v-325c0 -85 50 -141 140 -141s140 56 140 141v325h110v-334c0 -136 -82 -228 -250 -228zM393 606h-75l-165 144h100z" />
    <glyph glyph-name="Uacute.smcp" unicode="&#xf7fa;" horiz-adv-x="636" 
d="M318 -12c-167 0 -250 92 -250 228v334h110v-325c0 -85 50 -141 140 -141s140 56 140 141v325h110v-334c0 -136 -82 -228 -250 -228zM485 750l-165 -144h-75l140 144h100z" />
    <glyph glyph-name="Ucircumflex.smcp" unicode="&#xf7fb;" horiz-adv-x="636" 
d="M318 -12c-167 0 -250 92 -250 228v334h110v-325c0 -85 50 -141 140 -141s140 56 140 141v325h110v-334c0 -136 -82 -228 -250 -228zM461 606h-66l-78 97l-74 -97h-67l93 144h96z" />
    <glyph glyph-name="Udieresis.smcp" unicode="&#xf7fc;" horiz-adv-x="636" 
d="M318 -12c-167 0 -250 92 -250 228v334h110v-325c0 -85 50 -141 140 -141s140 56 140 141v325h110v-334c0 -136 -82 -228 -250 -228zM482 668c0 -32 -26 -58 -59 -58c-32 0 -58 26 -58 58c0 33 26 59 58 59c33 0 59 -26 59 -59zM273 668c0 -32 -26 -58 -59 -58
c-32 0 -59 26 -59 58c0 33 27 59 59 59c33 0 59 -26 59 -59z" />
    <glyph glyph-name="Yacute.smcp" unicode="&#xf7fd;" horiz-adv-x="557" 
d="M334 0h-108v229l-226 321h125l156 -228l153 228h123l-223 -321v-229zM446 750l-165 -144h-75l140 144h100z" />
    <glyph glyph-name="Thorn.smcp" unicode="&#xf7fe;" horiz-adv-x="541" 
d="M178 0h-110v550h110v-86h150c122 0 188 -81 188 -175c0 -95 -62 -176 -188 -176h-150v-113zM316 208c58 0 89 34 89 81c0 46 -31 80 -89 80h-138v-161h138z" />
    <glyph glyph-name="Ydieresis.smcp" unicode="&#xf7ff;" horiz-adv-x="557" 
d="M334 0h-108v229l-226 321h125l156 -228l153 228h123l-223 -321v-229zM444 668c0 -32 -26 -58 -59 -58c-32 0 -58 26 -58 58c0 33 26 59 58 59c33 0 59 -26 59 -59zM235 668c0 -32 -26 -58 -59 -58c-32 0 -59 26 -59 58c0 33 27 59 59 59c33 0 59 -26 59 -59z" />
    </font>
</defs>
</svg>
